Рекомендации по уходу / Основные принципы добра / The fundamentals of caring (Роб Барнетт / Rob Burnett) [2016, США, комедия, мелодрама, DVDRip] Sub Rus + Original Eng

Reply to topic
 
Author
Message

Satyr ®

Gender: Unknown

Longevity: 11 years

Posts: 15401

Reputation: 55 [+] [-]

Satyr · Post 11-Sep-2016 01:24

[Quote] 

Рекомендации по уходу / Основные принципы добра / The fundamentals of caring
Страна: США
Жанр: комедия, мелодрама
Год выпуска: 2016
Продолжительность: 01:33:27
Перевод: Субтитры (М. Васильев)
Cубтитры: русские
Оригинальная аудиодорожка: английский
Режиссер: Роб Барнетт / Rob Burnett
В ролях: Крэйг Робертс, Пол Радд, Селена Гомес, Дженнифер Или, Меган Фергюсон
Описание: Писатель, переживающий творческий и личностный кризис, устраивается работать сиделкой к юноше с редким генетическим заболеванием (которое, про должном уходе, не мешает ему вести вполне полноценную жизнь). Сначала они ненавидят друг друга, потом находят общий язык. А в итоге становятся лучшими друзьями и отправляются в путешествие по стране. В пути к ним присоединяется сбежавшая из дома девица. Для каждого эта поездка станет шагом на пути к познанию самого себя...
Доп. информация: Полнометражный фильм сервиса Netflix
Очень добрый и веселый фильм.
Сэмпл
IMDB
КИНОПОИСК
Качество видео: DVDRip
Формат видео: AVI
Видео: 1557 Kbps, 720x304 (2.35:1), 23 976 fps, XviD
Аудио: 384 Kbps, 48.0 KHz, 16 bits, 6 ch, AC 3
Формат субтитров: softsub (SRT)

MediaInfo

General
Complete name : C:\Users\master\Desktop\The.Fundamentals.of.Caring.2016.avi
Format : AVI
Format/Info : Audio Video Interleave
File size : 1.27 GiB
Duration : 1h 33mn
Overall bit rate : 1 951 Kbps
Video
ID : 0
Format : MPEG-4 Visual
Format profile : Advanced Simple@L5
Format settings, BVOP : 2
Format settings, QPel : No
Format settings, GMC : No warppoints
Format settings, Matrix : Default (H.263)
Codec ID : XVID
Codec ID/Hint : XviD
Duration : 1h 33mn
Bit rate : 1 557 Kbps
Width : 720 pixels
Height : 304 pixels
Display aspect ratio : 2.35:1
Frame rate : 23.976 fps
Color space : YUV
Chroma subsampling : 4:2:0
Bit depth : 8 bits
Scan type : Progressive
Compression mode : Lossy
Bits/(Pixel*Frame) : 0.297
Stream size : 1.02 GiB (80%)
Writing library : XviD 66
Audio
ID : 1
Format : AC-3
Format/Info : Audio Coding 3
Mode extension : CM (complete main)
Format settings, Endianness : Big
Codec ID : 2000
Duration : 1h 33mn
Bit rate mode : Constant
Bit rate : 384 Kbps
Channel(s) : 6 channels
Channel positions : Front: L C R, Side: L R, LFE
Sampling rate : 48.0 KHz
Bit depth : 16 bits
Compression mode : Lossy
Stream size : 257 MiB (20%)
Alignment : Aligned on interleaves
Interleave, duration : 42 ms (1.00 video frame)
Interleave, preload duration : 512 ms

Скриншот c названием фильма

Скриншоты







Титры

1
00:00:39,123 --> 00:00:44,712
Быть сиделкой - это не только
кормить, одевать и мыть...
2
00:00:45,088 --> 00:00:48,800
это еще - понимать,
как следует построить...
3
00:00:48,883 --> 00:00:52,387
отношения между
тем, кто ухаживает,
4
00:00:52,470 --> 00:00:54,889
и тем, кто нуждается
в уходе.
5
00:00:56,307 --> 00:01:00,395
Если вы запутались,
отчаялись, смущены,
6
00:01:00,478 --> 00:01:05,650
вам всегда придет
на помощь наше правило
7
00:01:06,234 --> 00:01:08,152
5 "С":
8
00:01:08,236 --> 00:01:14,576
спрашивать, слушать, следить,
сочувствовать и снова спрашивать.
9
00:01:15,285 --> 00:01:19,038
Основополагающий принцип
работы: заботиться...
10
00:01:19,789 --> 00:01:22,250
но не перегибать палку.
11
00:01:22,333 --> 00:01:25,211
Если вы нацелены
на серьезную карьеру,
12
00:01:25,295 --> 00:01:29,132
соблюдайте главные
заповеди нашей профессии.
13
00:01:31,092 --> 00:01:32,969
Запишите их.
Это важно.
14
00:01:33,761 --> 00:01:37,432
Я не могу заботитья о другом,
15
00:01:37,515 --> 00:01:42,437
если не могу
позаботиться о себе.
16
00:01:43,771 --> 00:01:47,567
Бен, прекрати!
Я знаю: ты там!
17
00:01:52,196 --> 00:01:58,745
Мои потребности равны потребностям
того, за кем я ухаживаю.
18
00:02:00,538 --> 00:02:02,373
Быть сиделкой - сложно.
19
00:02:02,457 --> 00:02:08,671
Все, что я могу - стараться
изо всех сил и сохранять позитивный настрой.
20
00:02:08,755 --> 00:02:11,841
Поздравляю.
Вы - дипломированная сиделка.
21
00:02:12,425 --> 00:02:15,136
Помните!
22
00:02:15,928 --> 00:02:17,430
5 "С":
23
00:02:18,348 --> 00:02:23,603
спрашивать, слушать, следить,
сочувствовать и снова спрашивать.
24
00:02:24,646 --> 00:02:28,733
Ни больше, ни меньше.
25
00:02:34,634 --> 00:02:37,500
РЕКОМЕНДАЦИИ ПО УХОДУ
[Profile]  [PM] 
Display posts:    
Reply to topic

Current time is: 22-Jan 13:56

All times are UTC + 2



You cannot post new topics in this forum
You cannot reply to topics in this forum
You cannot edit your posts in this forum
You cannot delete your posts in this forum
You cannot vote in polls in this forum
You cannot attach files in this forum
You cannot download files in this forum