Запрос в друзья / Friend Request (Симон Ферхоэвен / Simon Verhoeven) [2016, Германия, Триллер, ужасы, HDRip] Dub (iTunes)

Reply to topic
 
Author
Message

Satyr ®

Online

Gender: Unknown

Longevity: 11 years

Posts: 15401

Reputation: 55 [+] [-]

Satyr · Post 11-Sep-2016 01:24

[Quote] 

Запрос в друзья / Friend Request
Страна: Германия
Жанр: Триллер, ужасы
Год выпуска: 2016
Продолжительность: 01:32:27
Перевод: Профессиональный (дублированный) iTunes
Cубтитры: нет
Оригинальная аудиодорожка: нет
Режиссер: Симон Ферхоэвен / Simon Verhoeven
В ролях: Алисия Дебнем-Кери, Уильям Моусли, Коннор Паоло, Бритт Морган, Брук Маркам, Шон Маркетт, Лизль Алерс, Шэшони Холл, Сьюзэн Дэнфорд, Ли Равив
Описание: Вас добавляет в друзья одноклассник, однокурсник или коллега с работы, с которым вы практически никогда не общались, и начинает буквально атаковать вас сообщениями, почему-то решив, что вы с ним лучшие друзья. Знакомая ситуация? В подобную попадает Лора — главная героиня леденящего кровь триллера «Запрос в друзья». Решение удалить из френд-листа навязчивую и странноватую однокурсницу приведет к таким последствиям, которые не смогли бы предугадать даже самые большие любители хорроров.
Сэмпл: http://multi-up.com/1107333
Качество видео: HDRip (исходник не известен)
Формат видео: AVI
Видео: Xvid 720x304 23.976fps 1 873 Kbps
Аудио: Dolby AC3 48000Hz 6ch 384kbps

MediaInfo

Format : AVI
Format/Info : Audio Video Interleave
File size : 1.46 GiB
Duration : 1h 32mn
Overall bit rate : 2 265 Kbps
Writing application : VirtualDubModRus 1.5.10.2 (build 2542/release)
Writing library : VirtualDubMod build 2542/release
Video
ID : 0
Format : MPEG-4 Visual
Format profile : Advanced Simple@L5
Format settings, BVOP : Yes
Format settings, QPel : No
Format settings, GMC : No warppoints
Format settings, Matrix : Custom
Codec ID : XVID
Codec ID/Hint : XviD
Duration : 1h 32mn
Bit rate : 1 873 Kbps
Width : 720 pixels
Height : 304 pixels
Display aspect ratio : 2.35:1
Frame rate : 23.976 fps
Color space : YUV
Chroma subsampling : 4:2:0
Bit depth : 8 bits
Scan type : Progressive
Compression mode : Lossy
Bits/(Pixel*Frame) : 0.357
Stream size : 1.21 GiB (83%)
Writing library : XviD 73
Audio
ID : 1
Format : AC-3
Format/Info : Audio Coding 3
Mode extension : CM (complete main)
Format settings, Endianness : Big
Codec ID : 2000
Duration : 1h 32mn
Bit rate mode : Constant
Bit rate : 384 Kbps
Channel count : 6 channels
Channel positions : Front: L C R, Side: L R, LFE
Sampling rate : 48.0 KHz
Bit depth : 16 bits
Compression mode : Lossy
Stream size : 253 MiB (17%)
Alignment : Split accross interleaves
Interleave, duration : 42 ms (1.00 video frame)
Interleave, preload duration : 500 ms

Скриншот c названием фильма

Скриншоты

[Profile]  [PM] 
Display posts:    
Reply to topic

Current time is: 20-Sep 21:59

All times are UTC + 2



You cannot post new topics in this forum
You cannot reply to topics in this forum
You cannot edit your posts in this forum
You cannot delete your posts in this forum
You cannot vote in polls in this forum
You cannot attach files in this forum
You cannot download files in this forum