Гордость и предубеждение и зомби / Pride and Prejudice and Zombies (Бёрр Стирс / Burr Steers) [2016, США, Великобритания, ужасы, боевик, мелодрама, BDRip-AVC] Dub + Sub Eng + Original Eng

Reply to topic
 
Author
Message

Satyr ®

Gender: Unknown

Longevity: 11 years

Posts: 15401

Reputation: 55 [+] [-]

Satyr · Post 11-Sep-2016 01:24

[Quote] 

Гордость и предубеждение и зомби / Pride and Prejudice and Zombies«'It is a truth universally acknowledged that a zombie in possession of brains must be in want of more brains.' - Jane Austen and Seth Grahame-Smith»- Страна: США, Великобритания
Жанр: ужасы, боевик, мелодрама
Год выпуска: 2016
Продолжительность: 01:47:32-Перевод: Профессиональный (дублированный)
Cубтитры: английские
Оригинальная аудиодорожка: английский-Режиссер: Бёрр Стирс / Burr Steers
В ролях: Лили Джеймс, Сэм Райли, Белла Хиткот, Элли Бамбер, Милли Брэйди, Сьюки Уотерхаус, Дуглас Бут, Сэлли Филлипс, Чарльз Дэнс, Джек Хьюстон
Описание: Англия, XIX век. Элизабет Беннет и её сестры вынуждены противостоять заполонившим Англию ходячим мертвецам, а так же девушки сталкиваются с давлением необходимости найти себе мужей.- -Качество видео: BDRip-AVC [BDRemux]
Формат видео: MKV
Видео: AVC, 1152*480 (2.40:1), 3 000 Kbps, 23.976 fps
Аудио 1: AC-3, 48.0 KHz, 448 Kbps, 5.1 ch [Rus]
Аудио 2: AC-3, 48.0 KHz, 448 Kbps, 5.1 ch [Eng]
Формат субтитров: softsub (SRT)

MediaInfo

General
Unique ID : 188570871611071655019795525517681721817 (0x8DDD6DC7A3889697989B562179F981D9)
Complete name : C:\Movie\Гордость и предубеждение и зомби (Pride and Prejudice and Zombies) 2016.mkv
Format : Matroska
Format version : Version 4 / Version 2
File size : 2.93 GiB
Duration : 1h 47mn
Overall bit rate : 3 898 Kbps
Encoded date : UTC 2016-06-25 06:50:30
Writing application : mkvmerge v9.2.0 ('Photograph') 32bit
Writing library : libebml v1.3.3 + libmatroska v1.4.4
Cover : Yes
Attachments : cover.jpg
Video
ID : 1
Format : AVC
Format/Info : Advanced Video Codec
Format profile : High@L4.1
Format settings, CABAC : Yes
Format settings, ReFrames : 8 frames
Codec ID : V_MPEG4/ISO/AVC
Duration : 1h 47mn
Bit rate : 3 000 Kbps
Width : 1 152 pixels
Height : 480 pixels
Display aspect ratio : 2.40:1
Frame rate mode : Constant
Frame rate : 23.976 (24000/1001) fps
Color space : YUV
Chroma subsampling : 4:2:0
Bit depth : 8 bits
Scan type : Progressive
Bits/(Pixel*Frame) : 0.226
Stream size : 2.25 GiB (77%)
Writing library : x264 core 148 r2638 7599210
Encoding settings : cabac=1 / ref=8 / deblock=1:-1:-1 / analyse=0x3:0x113 / me=umh / subme=9 / psy=1 / psy_rd=1.00:0.15 / mixed_ref=1 / me_range=25 / chroma_me=1 / trellis=1 / 8x8dct=1 / cqm=0 / deadzone=21,11 / fast_pskip=1 / chroma_qp_offset=-3 / threads=6 / lookahead_threads=1 / sliced_threads=0 / nr=0 / decimate=1 / interlaced=0 / bluray_compat=0 / constrained_intra=0 / bframes=8 / b_pyramid=2 / b_adapt=2 / b_bias=0 / direct=3 / weightb=1 / open_gop=0 / weightp=2 / keyint=240 / keyint_min=23 / scenecut=40 / intra_refresh=0 / rc_lookahead=50 / rc=2pass / mbtree=1 / bitrate=3000 / ratetol=1.0 / qcomp=0.60 / qpmin=0 / qpmax=69 / qpstep=4 / cplxblur=20.0 / qblur=0.5 / vbv_maxrate=62500 / vbv_bufsize=78125 / nal_hrd=none / filler=0 / ip_ratio=1.40 / aq=1:1.00
Default : Yes
Forced : No
Audio #1
ID : 2
Format : AC-3
Format/Info : Audio Coding 3
Mode extension : CM (complete main)
Format settings, Endianness : Big
Codec ID : A_AC3
Duration : 1h 47mn
Bit rate mode : Constant
Bit rate : 448 Kbps
Channel(s) : 6 channels
Channel positions : Front: L C R, Side: L R, LFE
Sampling rate : 48.0 KHz
Frame rate : 31.250 fps (1536 spf)
Compression mode : Lossy
Stream size : 345 MiB (11%)
Title : Dub
Language : Russian
Default : Yes
Forced : No
Audio #2
ID : 3
Format : AC-3
Format/Info : Audio Coding 3
Mode extension : CM (complete main)
Format settings, Endianness : Big
Codec ID : A_AC3
Duration : 1h 47mn
Bit rate mode : Constant
Bit rate : 448 Kbps
Channel(s) : 6 channels
Channel positions : Front: L C R, Side: L R, LFE
Sampling rate : 48.0 KHz
Frame rate : 31.250 fps (1536 spf)
Compression mode : Lossy
Stream size : 345 MiB (11%)
Title : Original
Language : English
Default : No
Forced : No
Text #1
ID : 4
Format : UTF-8
Codec ID : S_TEXT/UTF8
Codec ID/Info : UTF-8 Plain Text
Duration : 1mn 57s
Bit rate : 7 bps
Count of elements : 2
Stream size : 106 Bytes (0%)
Title : Forced
Language : English
Default : Yes
Forced : No
Text #2
ID : 5
Format : UTF-8
Codec ID : S_TEXT/UTF8
Codec ID/Info : UTF-8 Plain Text
Duration : 1h 46mn
Bit rate : 58 bps
Count of elements : 1293
Stream size : 45.9 KiB (0%)
Title : Full
Language : English
Default : No
Forced : No
Text #3
ID : 6
Format : UTF-8
Codec ID : S_TEXT/UTF8
Codec ID/Info : UTF-8 Plain Text
Duration : 1h 46mn
Bit rate : 64 bps
Count of elements : 1486
Stream size : 50.8 KiB (0%)
Title : SDH
Language : English
Default : No
Forced : No
Menu
00:00:00.000 : en:00:00:00.000
00:06:41.318 : en:00:06:41.318
00:11:50.251 : en:00:11:50.251
00:17:59.996 : en:00:17:59.996
00:24:06.445 : en:00:24:06.445
00:31:53.036 : en:00:31:53.036
00:37:43.595 : en:00:37:43.595
00:44:22.243 : en:00:44:22.243
00:52:06.623 : en:00:52:06.623
00:59:28.607 : en:00:59:28.607
01:05:45.233 : en:01:05:45.233
01:11:16.981 : en:01:11:16.981
01:18:40.674 : en:01:18:40.674
01:25:03.348 : en:01:25:03.348
01:30:18.163 : en:01:30:18.163
01:35:49.744 : en:01:35:49.744

Скриншоты

-
[Profile]  [PM] 
Display posts:    
Reply to topic

Current time is: 01-Oct 06:22

All times are UTC + 2



You cannot post new topics in this forum
You cannot reply to topics in this forum
You cannot edit your posts in this forum
You cannot delete your posts in this forum
You cannot vote in polls in this forum
You cannot attach files in this forum
You cannot download files in this forum