Биркебейнеры / Birkebeinerne (Нильс Гёуп / Nils Gaup) [2016, Норвегия, боевик, драма, приключения, BDRip-AVC] MVO (ColdFilm)

Reply to topic
 
Author
Message

Satyr ®

Gender: Unknown

Longevity: 11 years

Posts: 15401

Reputation: 55 [+] [-]

Satyr · Post 11-Sep-2016 01:24

[Quote] 

Биркебейнеры / Birkebeinerne- Страна: Норвегия
Жанр: боевик, драма, приключения
Год выпуска: 2016
Продолжительность: 01:39:25
Перевод: Любительский (многоголосый, закадровый) (ColdFilm)
Cубтитры: нет
Режиссер: Нильс Гёуп / Nils Gaup
В ролях: Андерс Далберг (Aslak), Асмунд Бреде Эйке (Ståle), Elg Elgesem (Frikk), Пол Сверре Валхейм Хаген (Gisle), Торбьорн Харр (Inge), Беньямин Хельстад (King), Кристофер Хивью (Torstein), Стиг Хенрик Хофф, Еппе Леурсен (Audun), Николай Ли Каас, Адам Немет (Gisles Guard)
Описание: 1204 год, Норвегию раздирает гражданская война. Незаконнорожденного сына короля Хокона III Сверрессона и Инги из Вартейга хранят в глубокой тайне. Мальчик был внебрачным сыном короля и родился после его смерти, что спровоцировало кровавую междоусобицу. Биркебейнеры (ополчение, созданное его дедом, королем Сверре Сигурдсоном) признали мальчика наследником трона Норвегии. Однако католические священники объявили охоту на ребенка с целью его уничтожения.
В 1206 году группа вооруженных биркебейнеров помогла Инги и Хокону бежать на север под покровительством короля Инге Бордссона. По пути их небольшой отряд попал в снежную бурю, но два могучих воина, Торстейн Шевла и Шьервальд Шрукка, продолжали продвигаться на лыжах, неся ребенка на руках. Когда Хокона доставили в Тронхейм, король Инге взял его под своё покровительство.
-Качество: BDRip-AVC (исходник - BDRemux|BIRKEBEINERE_2016_BDREMUX_HDCLUB)
Формат видео: MKV
Видео: x264, 1152x490 (2.35:1), 24 fps, ~2322 kbps, 0.171 bit/pixel
Аудио: 48 kHz, AC3 Dolby Digital, 3/2 (L,C,R,l,r) + LFE ch, ~448 kbps

MediaInfo | x264 log

Format : Matroska
Format version : Version 4 / Version 2
File size : 1.96 GiB
Duration : 1h 39mn
Overall bit rate : 2 826 Kbps
Movie name : Биркебейнеры / Birkebeinerne (2016) :: AFM ::
Encoded date : UTC 2016-06-23 17:46:06
Writing application : mkvmerge v8.3.0 ('Over the Horizon') 32bit
Writing library : libebml v1.3.1 + libmatroska v1.4.2
Video
ID : 1
Format : AVC
Format/Info : Advanced Video Codec
Format profile : High@L4.1
Format settings, CABAC : Yes
Format settings, ReFrames : 10 frames
Codec ID : V_MPEG4/ISO/AVC
Duration : 1h 39mn
Bit rate : 2 322 Kbps
Width : 1 152 pixels
Height : 490 pixels
Display aspect ratio : 2.35:1
Frame rate mode : Constant
Frame rate : 24.000 fps
Color space : YUV
Chroma subsampling : 4:2:0
Bit depth : 8 bits
Scan type : Progressive
Bits/(Pixel*Frame) : 0.171
Stream size : 1.61 GiB (82%)
Title : BDRip by AFM [torrentsland.com.ua]
Writing library : x264 core 148 r2705+54 9f484c1 t_mod_Custom [8-bit@all X86_64]
Encoding settings : cabac=1 / ref=10 / deblock=1:-2:-2 / analyse=0x3:0x113 / me=umh / subme=10 / psy=1 / fade_compensate=0.00 / psy_rd=1.00:0.00 / mixed_ref=1 / me_range=32 / chroma_me=1 / trellis=2 / 8x8dct=1 / cqm=0 / deadzone=21,11 / fast_pskip=0 / chroma_qp_offset=-2 / threads=6 / lookahead_threads=1 / sliced_threads=0 / nr=0 / decimate=1 / interlaced=0 / bluray_compat=0 / constrained_intra=0 / fgo=0 / bframes=14 / b_pyramid=2 / b_adapt=2 / b_bias=0 / direct=1 / weightb=1 / open_gop=0 / weightp=2 / keyint=250 / keyint_min=23 / scenecut=40 / intra_refresh=0 / rc_lookahead=40 / rc=crf / mbtree=0 / crf=18.7000 / qcomp=0.65 / qpmin=0:0:0 / qpmax=69:69:69 / qpstep=4 / vbv_maxrate=50000 / vbv_bufsize=62500 / crf_max=0.0 / nal_hrd=none / filler=0 / ip_ratio=1.25 / pb_ratio=1.20 / aq=1:0.90 / aq-sensitivity=10.00 / aq-factor=1.00:1.00:1.00 / aq2=0 / aq3=0
Language : English
Default : Yes
Forced : No
Audio
ID : 2
Format : AC-3
Format/Info : Audio Coding 3
Mode extension : CM (complete main)
Format settings, Endianness : Big
Codec ID : A_AC3
Duration : 1h 39mn
Bit rate mode : Constant
Bit rate : 448 Kbps
Channel(s) : 6 channels
Channel positions : Front: L C R, Side: L R, LFE
Sampling rate : 48.0 KHz
Compression mode : Lossy
Stream size : 319 MiB (16%)
Title : MVO, AC3 5.1 ~448 kbps
Language : Russian
Default : Yes
Forced : No
Menu
00:00:00.000 : en:Chapter 1
00:09:59.788 : en:Chapter 2
00:19:59.750 : en:Chapter 3
00:29:59.663 : en:Chapter 4
00:39:59.750 : en:Chapter 5
00:49:59.833 : en:Chapter 6
00:59:59.708 : en:Chapter 7
01:09:59.707 : en:Chapter 8
01:19:59.916 : en:Chapter 9
01:29:59.791 : en:Chapter 10
01:39:24.291 : en:Chapter 11

x264

x264 [info]: frame I:862 Avg QP:16.19 size: 55566
x264 [info]: frame P:28917 Avg QP:17.27 size: 22549
x264 [info]: frame B:113387 Avg QP:18.87 size: 9453
x264 [info]: consecutive B-frames: 1.5% 2.0% 6.8% 19.1% 14.9% 37.5% 5.3% 2.0% 2.6% 4.0% 0.9% 1.1% 0.8% 0.8% 0.9%
x264 [info]: mb I I16..4: 7.7% 79.2% 13.1%
x264 [info]: mb P I16..4: 1.7% 15.2% 1.9% P16..4: 36.5% 24.4% 11.8% 0.0% 0.0% skip: 8.5%
x264 [info]: mb B I16..4: 0.2% 1.2% 0.2% B16..8: 38.5% 13.0% 3.2% direct: 7.8% skip:35.7% L0:47.1% L1:43.5% BI: 9.4%
x264 [info]: 8x8 transform intra:79.1% inter:65.6%
x264 [info]: coded y,uvDC,uvAC intra: 77.0% 65.0% 35.8% inter: 28.1% 22.6% 1.7%
x264 [info]: i16 v,h,dc,p: 39% 21% 11% 29%
x264 [info]: i8 v,h,dc,ddl,ddr,vr,hd,vl,hu: 9% 9% 10% 9% 13% 12% 14% 11% 13%
x264 [info]: i4 v,h,dc,ddl,ddr,vr,hd,vl,hu: 9% 8% 6% 9% 16% 14% 15% 11% 13%
x264 [info]: i8c dc,h,v,p: 48% 25% 17% 11%
x264 [info]: Weighted P-Frames: Y:8.5% UV:4.9%
x264 [info]: ref P L0: 45.5% 10.2% 15.7% 7.5% 5.8% 4.5% 3.9% 2.4% 2.2% 2.1% 0.2% 0.0%
x264 [info]: ref B L0: 66.2% 13.1% 7.5% 4.1% 3.1% 2.5% 2.1% 1.0% 0.4%
x264 [info]: ref B L1: 92.1% 7.9%
x264 [info]: kb/s:2376.18

Скриншоты

с названием

[Profile]  [PM] 
Display posts:    
Reply to topic

Current time is: 22-Sep 15:34

All times are UTC + 2



You cannot post new topics in this forum
You cannot reply to topics in this forum
You cannot edit your posts in this forum
You cannot delete your posts in this forum
You cannot vote in polls in this forum
You cannot attach files in this forum
You cannot download files in this forum