Охота на работу / Get a Job (Дилан Кидд / Dylan Kidd) [2016, США, комедия, BDRip-AVC] MVO + Original + Sub (rus, eng)

Reply to topic
 
Author
Message

Satyr ®

Gender: Unknown

Longevity: 11 years

Posts: 15401

Reputation: 55 [+] [-]

Satyr · Post 11-Sep-2016 01:24

[Quote] 

Охота на работу / Get a Job«Graduating was the easy part»- Страна: США
Жанр: комедия
Год выпуска: 2016
Продолжительность: 01:22:44
Перевод: Любительский (многоголосый, закадровый) (Paradox & Omskbird records)
Оригинальная аудиодорожка: английский
Субтитры: русские (полные) английские (полные)
Навигация по главам: есть
Режиссер: Дилан Кидд / Dylan Kidd
В ролях: Анна Кендрик (Jillian Stewart), Элисон Бри (Tanya), Брайан Крэнстон (Roger Davis), Майлз Теллер (Will Davis), Николас Браун (Charlie), Кристофер Минц-Плассе (Ethan), Марша Гей Харден (Katherine Dunn), Джон К. МакГинли (Diller), Джон Чо (Brian Bender), Кэмерон Ричардсон (Tara), Хорхе Гарсиа (Fernando), Грег Джерманн (Fernando)
Описание: Сюжет ленты строится вокруг выпускника колледжа и его друзей. Молодые специалисты стоят на распутье, чем заниматься, зачем и тому ли они учились. В стране экономический кризис, а молодежь хочет отрываться.
-Качество: BDRip-AVC (исходник - BDRemux|Get.A.Job.2016.1080p.BluRay.REMUX.AVC.DTS-HD.MA.5.1-RARBG)
Формат видео: MKV
Видео: x264, 1120x630 (16:9), 23,976 fps, ~2570 kbps, 0,152 bit/pixel
Аудио 1: 48 kHz, AC3 Dolby Digital, 3/2 (L,C,R,l,r) + LFE ch, ~448 kbps [русский]
Аудио 2: 48 kHz, AC3 Dolby Digital, 3/2 (L,C,R,l,r) + LFE ch, ~448 kbps [английский]
Формат субтитров: softsub (SRT)

MediaInfo | x264 log

Format : Matroska
Format version : Version 4 / Version 2
File size : 2.04 GiB
Duration : 1h 22mn
Overall bit rate : 3 537 Kbps
Movie name : Охота на работу / Get a Job (2016) :: AFM ::
Encoded date : UTC 2016-06-22 23:40:24
Writing application : mkvmerge v8.3.0 ('Over the Horizon') 32bit
Writing library : libebml v1.3.1 + libmatroska v1.4.2
Video
ID : 1
Format : AVC
Format/Info : Advanced Video Codec
Format profile : High@L4.1
Format settings, CABAC : Yes
Format settings, ReFrames : 11 frames
Codec ID : V_MPEG4/ISO/AVC
Duration : 1h 22mn
Bit rate : 2 571 Kbps
Width : 1 120 pixels
Height : 630 pixels
Display aspect ratio : 16:9
Frame rate mode : Constant
Frame rate : 23.976 fps
Color space : YUV
Chroma subsampling : 4:2:0
Bit depth : 8 bits
Scan type : Progressive
Bits/(Pixel*Frame) : 0.152
Stream size : 1.49 GiB (73%)
Title : BDRip by AFM [torrentsland.com.ua]
Writing library : x264 core 148 r2705+54 9f484c1 t_mod_Custom [8-bit@all X86_64]
Encoding settings : cabac=1 / ref=11 / deblock=1:-2:-2 / analyse=0x3:0x113 / me=umh / subme=10 / psy=1 / fade_compensate=0.00 / psy_rd=1.00:0.00 / mixed_ref=1 / me_range=32 / chroma_me=1 / trellis=2 / 8x8dct=1 / cqm=0 / deadzone=21,11 / fast_pskip=0 / chroma_qp_offset=-2 / threads=6 / lookahead_threads=1 / sliced_threads=0 / nr=0 / decimate=1 / interlaced=0 / bluray_compat=0 / constrained_intra=0 / fgo=0 / bframes=13 / b_pyramid=2 / b_adapt=2 / b_bias=0 / direct=1 / weightb=1 / open_gop=0 / weightp=2 / keyint=250 / keyint_min=23 / scenecut=40 / intra_refresh=0 / rc_lookahead=40 / rc=crf / mbtree=0 / crf=18.3000 / qcomp=0.65 / qpmin=0:0:0 / qpmax=69:69:69 / qpstep=4 / vbv_maxrate=50000 / vbv_bufsize=62500 / crf_max=0.0 / nal_hrd=none / filler=0 / ip_ratio=1.35 / pb_ratio=1.27 / aq=1:0.80 / aq-sensitivity=10.00 / aq-factor=1.00:1.00:1.00 / aq2=0 / aq3=0
Language : English
Default : Yes
Forced : No
Audio #1
ID : 2
Format : AC-3
Format/Info : Audio Coding 3
Mode extension : CM (complete main)
Format settings, Endianness : Big
Codec ID : A_AC3
Duration : 1h 22mn
Bit rate mode : Constant
Bit rate : 448 Kbps
Channel(s) : 6 channels
Channel positions : Front: L C R, Side: L R, LFE
Sampling rate : 48.0 KHz
Compression mode : Lossy
Stream size : 265 MiB (13%)
Title : MVO, AC3 5.1 ~448 kbps
Language : Russian
Default : Yes
Forced : No
Audio #2
ID : 3
Format : AC-3
Format/Info : Audio Coding 3
Mode extension : CM (complete main)
Format settings, Endianness : Big
Codec ID : A_AC3
Duration : 1h 22mn
Bit rate mode : Constant
Bit rate : 448 Kbps
Channel(s) : 6 channels
Channel positions : Front: L C R, Side: L R, LFE
Sampling rate : 48.0 KHz
Compression mode : Lossy
Stream size : 265 MiB (13%)
Title : Original, AC3 5.1 ~448 kbps
Language : English
Default : No
Forced : No
Text #1
ID : 4
Format : UTF-8
Codec ID : S_TEXT/UTF8
Codec ID/Info : UTF-8 Plain Text
Language : Russian
Default : No
Forced : No
Text #2
ID : 5
Format : UTF-8
Codec ID : S_TEXT/UTF8
Codec ID/Info : UTF-8 Plain Text
Language : English
Default : No
Forced : No
Menu
00:00:00.000 : en:Chapter 01
00:06:13.289 : en:Chapter 02
00:12:55.858 : en:Chapter 03
00:18:29.149 : en:Chapter 04
00:24:29.134 : en:Chapter 05
00:29:27.974 : en:Chapter 06
00:36:06.664 : en:Chapter 07
00:44:14.652 : en:Chapter 08
00:52:37.737 : en:Chapter 09
01:01:23.137 : en:Chapter 10
01:07:12.278 : en:Chapter 11
01:16:53.275 : en:Chapter 12

x264

x264 [info]: frame I:1016 Avg QP:16.77 size: 80216
x264 [info]: frame P:21878 Avg QP:18.30 size: 30091
x264 [info]: frame B:96131 Avg QP:20.25 size: 9338
x264 [info]: consecutive B-frames: 1.3% 0.7% 3.1% 12.7% 15.9% 50.8% 6.1% 1.0% 1.9% 0.5% 3.3% 0.7% 0.6% 1.5%
x264 [info]: mb I I16..4: 7.5% 74.8% 17.7%
x264 [info]: mb P I16..4: 1.1% 8.9% 1.7% P16..4: 38.8% 28.2% 14.4% 0.0% 0.0% skip: 7.0%
x264 [info]: mb B I16..4: 0.1% 0.6% 0.1% B16..8: 37.3% 10.3% 2.8% direct: 5.2% skip:43.5% L0:44.5% L1:45.0% BI:10.5%
x264 [info]: 8x8 transform intra:74.7% inter:62.1%
x264 [info]: coded y,uvDC,uvAC intra: 79.3% 80.1% 58.1% inter: 21.0% 19.3% 4.7%
x264 [info]: i16 v,h,dc,p: 47% 15% 9% 29%
x264 [info]: i8 v,h,dc,ddl,ddr,vr,hd,vl,hu: 16% 8% 9% 8% 12% 13% 11% 11% 11%
x264 [info]: i4 v,h,dc,ddl,ddr,vr,hd,vl,hu: 18% 8% 5% 8% 14% 14% 12% 11% 10%
x264 [info]: i8c dc,h,v,p: 42% 22% 22% 14%
x264 [info]: Weighted P-Frames: Y:1.3% UV:0.6%
x264 [info]: ref P L0: 44.2% 9.9% 18.4% 6.5% 6.0% 3.9% 3.9% 2.0% 2.0% 1.6% 1.8% 0.0% 0.0%
x264 [info]: ref B L0: 70.0% 12.2% 6.3% 3.4% 2.4% 2.0% 1.6% 1.0% 0.7% 0.3%
x264 [info]: ref B L1: 93.3% 6.7%
x264 [info]: kb/s:2638.91

Скриншоты

с названием

[Profile]  [PM] 
Display posts:    
Reply to topic

Current time is: 22-Jan 14:32

All times are UTC + 2



You cannot post new topics in this forum
You cannot reply to topics in this forum
You cannot edit your posts in this forum
You cannot delete your posts in this forum
You cannot vote in polls in this forum
You cannot attach files in this forum
You cannot download files in this forum