Голограмма для короля / A Hologram for the King (Том Тыквер / Tom Tykwer) [2016, Великобритания, Франция, комедия, драма, WEB-DLRip-AVC] [Локализованный видеоряд] Dub

Reply to topic
 
Author
Message

Satyr ®

Gender: Unknown

Longevity: 11 years

Posts: 15401

Reputation: 55 [+] [-]

Satyr · Post 11-Sep-2016 01:24

[Quote] 

Голограмма для короля / A Hologram for the King- Страна: Великобритания, Франция, Германия, США, Мексика
Жанр: комедия, драма
Год выпуска: 2016
Продолжительность: 01:33:45
Перевод: Профессиональный (полное дублирование) (iTunes)
Навигация по главам: есть
Режиссер: Том Тыквер / Tom Tykwer
В ролях: Том Хэнкс, Александр Блэк, Сарита Чоудри, Сидсе Бабетт Кнудсен, Трэйси Фэирэуэй, Джейн Перри, Том Скерритт, Михаэль Бараль, Льюис Райнер, Александр Молкентин
Описание: Алан Клей - муж, отец, бизнесмен. Но его бизнес терпит крах, его брак трещит по швам, и он не знает, где взять деньги на оплату обучения дочери. Чтобы избежать банкротства и разорвать замкнутый круг, Клей отправляется в Саудовскую Аравию, где он надеется продвинуть свой дерзкий технологический проект. Во время томительного ожидания встречи с королем Алан познает скрытые тайны арабского мира, которые преображают реальность, подобно голограмме. Никто не подозревал, чем обернется это путешествие к Красному морю...- -Качество: WEB-DLRip-AVC (исходник - A.Hologram.for.the.King.2016.D.WEB-DL.1080p)
Формат видео: MKV
Видео: x264, 1088x456 (2.40:1), 25.00 fps, ~1845 kbps, 0,149 bit/pixel
Аудио: 48 kHz, AC3 Dolby Digital, 3/2 (L,C,R,l,r) + LFE ch, ~384 kbps [русский]-

MediaInfo | x264 log

Format : Matroska
Format version : Version 4 / Version 2
File size : 1.46 GiB
Duration : 1h 33mn
Overall bit rate : 2 230 Kbps
Movie name : Голограмма для короля / A Hologram for the King (2016) :: AFM ::
Encoded date : UTC 2016-06-22 17:03:38
Writing application : mkvmerge v8.3.0 ('Over the Horizon') 32bit
Writing library : libebml v1.3.1 + libmatroska v1.4.2
Video
ID : 1
Format : AVC
Format/Info : Advanced Video Codec
Format profile : High@L4.1
Format settings, CABAC : Yes
Format settings, ReFrames : 11 frames
Codec ID : V_MPEG4/ISO/AVC
Duration : 1h 33mn
Bit rate : 1 845 Kbps
Width : 1 088 pixels
Height : 456 pixels
Display aspect ratio : 2.40:1
Frame rate mode : Constant
Frame rate : 25.000 fps
Color space : YUV
Chroma subsampling : 4:2:0
Bit depth : 8 bits
Scan type : Progressive
Bits/(Pixel*Frame) : 0.149
Stream size : 1.18 GiB (81%)
Title : WEBDLRip by AFM [torrentsland.com.ua]
Writing library : x264 core 148 r2705+54 9f484c1 t_mod_Custom [8-bit@all X86_64]
Encoding settings : cabac=1 / ref=11 / deblock=1:-2:-2 / analyse=0x3:0x113 / me=umh / subme=10 / psy=1 / fade_compensate=0.00 / psy_rd=1.00:0.00 / mixed_ref=1 / me_range=32 / chroma_me=1 / trellis=2 / 8x8dct=1 / cqm=0 / deadzone=21,11 / fast_pskip=0 / chroma_qp_offset=-2 / threads=6 / lookahead_threads=1 / sliced_threads=0 / nr=0 / decimate=0 / interlaced=0 / bluray_compat=0 / constrained_intra=0 / fgo=0 / bframes=13 / b_pyramid=2 / b_adapt=2 / b_bias=0 / direct=3 / weightb=1 / open_gop=0 / weightp=2 / keyint=250 / keyint_min=25 / scenecut=40 / intra_refresh=0 / rc_lookahead=40 / rc=2pass / mbtree=0 / bitrate=1845 / ratetol=1.0 / qcomp=0.65 / qpmin=0:0:0 / qpmax=69:69:69 / qpstep=4 / cplxblur=20.0 / qblur=0.5 / vbv_maxrate=50000 / vbv_bufsize=62500 / nal_hrd=none / filler=0 / ip_ratio=1.30 / pb_ratio=1.25 / aq=1:0.80 / aq-sensitivity=10.00 / aq-factor=1.00:1.00:1.00 / aq2=0 / aq3=0
Language : English
Default : Yes
Forced : No
Audio
ID : 2
Format : AC-3
Format/Info : Audio Coding 3
Mode extension : CM (complete main)
Format settings, Endianness : Big
Codec ID : A_AC3
Duration : 1h 33mn
Bit rate mode : Constant
Bit rate : 384 Kbps
Channel(s) : 6 channels
Channel positions : Front: L C R, Side: L R, LFE
Sampling rate : 48.0 KHz
Compression mode : Lossy
Stream size : 257 MiB (17%)
Title : Dub, AC3 5.1 ~384 kbps
Language : Russian
Default : Yes
Forced : No
Menu
00:00:00.000 : en:Глава 1
00:05:58.600 : en:Глава 2
00:11:17.840 : en:Глава 3
00:16:37.040 : en:Глава 4
00:22:23.880 : en:Глава 5
00:27:41.400 : en:Глава 6
00:33:24.000 : en:Глава 7
00:39:02.920 : en:Глава 8
00:45:11.680 : en:Глава 9
00:50:17.640 : en:Глава 10
00:56:14.800 : en:Глава 11
01:02:13.560 : en:Глава 12
01:07:39.600 : en:Глава 13
01:13:21.240 : en:Глава 14
01:18:55.680 : en:Глава 15
01:23:58.560 : en:Глава 16

x264

x264 [info]: frame I:1427 Avg QP:15.59 size: 62154
x264 [info]: frame P:35388 Avg QP:18.30 size: 18788
x264 [info]: frame B:103808 Avg QP:19.91 size: 5231
x264 [info]: consecutive B-frames: 2.2% 3.6% 5.2% 68.4% 6.5% 9.5% 1.1% 1.1% 0.2% 0.2% 0.2% 0.6% 0.3% 1.1%
x264 [info]: mb I I16..4: 6.0% 70.9% 23.1%
x264 [info]: mb P I16..4: 0.7% 6.4% 1.1% P16..4: 40.4% 30.3% 16.0% 0.0% 0.0% skip: 5.2%
x264 [info]: mb B I16..4: 0.0% 0.6% 0.1% B16..8: 35.3% 11.2% 3.0% direct: 4.8% skip:44.9% L0:39.9% L1:44.3% BI:15.8%
x264 [info]: 8x8 transform intra:76.2% inter:56.0%
x264 [info]: direct mvs spatial:97.5% temporal:2.5%
x264 [info]: coded y,uvDC,uvAC intra: 88.2% 85.0% 62.4% inter: 19.5% 15.2% 7.2%
x264 [info]: i16 v,h,dc,p: 38% 15% 9% 38%
x264 [info]: i8 v,h,dc,ddl,ddr,vr,hd,vl,hu: 16% 11% 6% 8% 11% 11% 12% 11% 13%
x264 [info]: i4 v,h,dc,ddl,ddr,vr,hd,vl,hu: 16% 11% 3% 8% 13% 13% 13% 10% 12%
x264 [info]: i8c dc,h,v,p: 39% 25% 20% 16%
x264 [info]: Weighted P-Frames: Y:3.6% UV:1.6%
x264 [info]: ref P L0: 50.0% 9.1% 17.5% 6.0% 5.1% 3.2% 3.0% 1.6% 1.6% 1.2% 1.5% 0.1% 0.0%
x264 [info]: ref B L0: 75.9% 10.9% 4.6% 2.8% 1.7% 1.3% 1.0% 1.1% 0.5% 0.3%
x264 [info]: ref B L1: 95.8% 4.2%
x264 [info]: kb/s:1844.03

Скриншоты

с названием

[Profile]  [PM] 
Display posts:    
Reply to topic

Current time is: 21-Sep 05:02

All times are UTC + 2



You cannot post new topics in this forum
You cannot reply to topics in this forum
You cannot edit your posts in this forum
You cannot delete your posts in this forum
You cannot vote in polls in this forum
You cannot attach files in this forum
You cannot download files in this forum