Большое путешествие Пи-Ви / Pee-Wee\'s big holiday (Джон Ли / John Lee) [2016, США, Комедия, WEB-DLRip] VO (Cmert) + Original Eng

Reply to topic
 
Author
Message

Satyr ®

Gender: Unknown

Longevity: 15 years

Posts: 22031

Reputation: 56 [+] [-]

Satyr · Post 11-Sep-2016 01:24

[Quote] 

Большое путешествие Пи-Ви / Pee-Wee's big holiday
Страна: США
Жанр: Комедия, приключения
Год выпуска: 2016
Продолжительность: 01:29:07
Перевод: Одноголосый закадровый Cmert по субтитрам М.Васильев
Cубтитры: нет
Оригинальная аудиодорожка: английский
Режиссер: Джон Ли / John Lee
В ролях: Пол Рубенс, Джо Манганьелло, Джессика Поли, Стефани Беатриз, Патрик Эган
Описание: Пи-Ви - маленький человек, живущий в маленьком городке и весьма довольный своей жизнью. Однако, серия неожиданных событий вынуждает Пи-Ви покинуть свою малую родину и отправиться в грандиозное путешествие по стране. Он встретит настоящих грабителей банков, познакомится с дружелюбным фермером и его девятью сексуально озабоченными дочерьми, а еще побывает в общине амишей...
Доп. информация: Фильм является частью франшизы о приключениях Пи-Ви.
Озвучил отсюда:http://torrentsland.com.ua/forum/viewtopic.php?t=5208347
Сэмпл: http://multi-up.com/1106550
Качество видео: WEB-DLRip
Формат видео: AVI
Видео: 720x384 (1.88:1), 23.976 fps, XviD MPEG-4 ~2020 kbps avg, 0.30 bit/pixel
Аудио: 44.100 kHz, MPEG Layer 3, 2 ch, ~128.00 kbps avg
Аудио 2: 48 kHz, AC3 Dolby Digital, 2/0 (L,R) ch, ~192 kbps

MediaInfo

Format : AVI
Format/Info : Audio Video Interleave
File size : 1.47 GiB
Duration : 1h 29mn
Overall bit rate : 2 356 Kbps
Writing application : VirtualDubMod 1.5.10.2 (build 2540/release)
Writing library : VirtualDubMod build 2540/release
Video
ID : 0
Format : MPEG-4 Visual
Format profile : Advanced Simple@L5
Format settings, BVOP : 2
Format settings, QPel : No
Format settings, GMC : No warppoints
Format settings, Matrix : Default (H.263)
Muxing mode : Packed bitstream
Codec ID : XVID
Codec ID/Hint : XviD
Duration : 1h 29mn
Bit rate : 2 021 Kbps
Width : 720 pixels
Height : 384 pixels
Display aspect ratio : 1.85:1
Frame rate : 23.976 fps
Color space : YUV
Chroma subsampling : 4:2:0
Bit depth : 8 bits
Scan type : Progressive
Compression mode : Lossy
Bits/(Pixel*Frame) : 0.305
Stream size : 1.26 GiB (86%)
Writing library : XviD 66
Audio #1
ID : 1
Format : MPEG Audio
Format version : Version 1
Format profile : Layer 3
Mode : Joint stereo
Mode extension : MS Stereo
Codec ID : 55
Codec ID/Hint : MP3
Duration : 1h 29mn
Bit rate mode : Constant
Bit rate : 128 Kbps
Channel(s) : 2 channels
Sampling rate : 44.1 KHz
Compression mode : Lossy
Stream size : 81.6 MiB (5%)
Alignment : Split accross interleaves
Interleave, duration : 42 ms (1.00 video frame)
Interleave, preload duratio : 500 ms
Audio #2
ID : 2
Format : AC-3
Format/Info : Audio Coding 3
Mode extension : CM (complete main)
Format settings, Endianness : Big
Codec ID : 2000
Duration : 1h 29mn
Bit rate mode : Constant
Bit rate : 192 Kbps
Channel(s) : 2 channels
Channel positions : Front: L R
Sampling rate : 48.0 KHz
Bit depth : 16 bits
Compression mode : Lossy
Stream size : 122 MiB (8%)
Alignment : Split accross interleaves
Interleave, duration : 42 ms (1.00 video frame)
Interleave, preload duratio : 500 ms

Скриншот c названием фильма

Скриншоты

[Profile]  [PM] 
Display posts:    
Reply to topic

Current time is: 19-Jul 06:03

All times are UTC + 2



You cannot post new topics in this forum
You cannot reply to topics in this forum
You cannot edit your posts in this forum
You cannot delete your posts in this forum
You cannot vote in polls in this forum
You cannot attach files in this forum
You cannot download files in this forum