На пороге неизведанного / Познать неизведанное / Приближая неизвестное / Approaching the Unknown (Марк Элайжа Розенберг / Mark Elijah Rosenberg) [2016, США, ненаучная фантастика, драма, WEB-DLRip] MVO (ColdFilm)

Reply to topic
 
Author
Message

Satyr ®

Gender: Unknown

Longevity: 11 years

Posts: 15401

Reputation: 55 [+] [-]

Satyr · Post 11-Sep-2016 01:24

[Quote] 

На пороге неизведанного / Познать неизведанное / Приближая неизвестное / Approaching the Unknown
Страна: США
Жанр: Ненаучная фантастика, драма
Год выпуска: 2016
Продолжительность: 01:30:17
Перевод: Любительский (многоголосый закадровый) ColdFilm
Cубтитры: отсутствуют
Оригинальная аудиодорожка: нет
Режиссёр: Марк Элайжа Розенберг / Mark Elijah Rosenberg
В ролях: Марк Стронг, Люк Уилсон, Санаа Лэтэн, Андерс Даниелсен Лье, Чарльз Бэйкер, Стивен Броуер, Стефани Гулд, Франциска Лампрехт, Аманда Ларсон, Уит К. Ли, и др.
Описание: Подготовка к одиночному полёту на Марс, была для американского космонавта Уильяма Стэнфорта очень напряжённой, но те трудности, с которыми он столкнулся в космосе, превзошли все его ожидания... Это не тренировочный центр, тут некуда отступать. Или ты побеждаешь и выживаешь, или верную смерть получаешь...


Качество видео: WEB-DLRip [Approaching.the.Unknown.2016..WEB-DL.1080p.mkv_nnmclub]
Формат видео: AVI
Vidеo: XviD 67 MPEG-4, 720x400 (16:9) 23.976 fps, ~2147 kbps avg, 0.311 bit/pixel
Аudiо: AC-3 Dolby Digital, CBR 192 kbps 2 ch (Front: L R) 48.0 KHz

MediaInfo

ОбщееПолное имя                               : V:\Approaching_the_Unknown_2016_WEB-DLRip_[torrentsland.com.ua].aviФормат                                   : AVIФормат/Информация                        : Audio Video InterleaveРазмер файла                             : 1,48 ГбайтПродолжительность                        : 1 ч. 30 м.Общий поток                              : 2348 Кбит/секНазвание фильма                          : Approaching_the_Unknown_2016_WEB-DLRip_[torrentsland.com.ua]Режиссёр                                 : OGORODNIKOFFFЖанр                                     : Ненаучная фантастика, драмаПрограмма кодирования                    : VirtualDubModRus 1.5.10.2 (build 2542/release)Формат оригинала/Имя                     : Фильмы 2016Правообладатель                          : http://torrentsland.com.ua/forum/profile.php?mode=viewprofile&u=38116300Примечание                               : Рип подготовлен 18 июня 2016 года
ВидеоИдентификатор : 0Формат : MPEG-4 VisualПрофиль формата : Advanced Simple@L5Параметр BVOP формата : 1Параметр QPel формата : НетПараметр GMC формата : Без точки переходаПараметр матрицы формата : ВыборочнаяИдентификатор кодека : DX50Идентификатор кодека/Подсказка : DivX 5Продолжительность : 1 ч. 30 м.Битрейт : 2147 Кбит/секШирина : 720 пикселейВысота : 400 пикселейСоотношение сторон : 16:9Частота кадров : 23,976 кадра/секЦветовое пространство : YUVСубдискретизация насыщенности : 4:2:0Битовая глубина : 8 битТип развёртки : ПрогрессивнаяМетод сжатия : С потерямиБит/(Пиксели*Кадры) : 0.311Размер потока : 1,35 Гбайт (91%)Библиотека кодирования : XviD 67
АудиоИдентификатор : 1Формат : AC-3Формат/Информация : Audio Coding 3Расширение режима : CM (complete main)Параметр Endianness формата : BigИдентификатор кодека : 2000Продолжительность : 1 ч. 30 м.Вид битрейта : ПостоянныйБитрейт : 192 Кбит/секКаналы : 2 каналаРасположение каналов : Front: L RЧастота : 48,0 КГцБитовая глубина : 16 битМетод сжатия : С потерямиЗадержка видео : 6 мс.Размер потока : 124 Мбайт (8%)Выравнивание : Разделение по промежуткамПродолжительность промежутка : 42 мс. (1,00 видеокадр)Время предзагрузки промежутка : 500 мс.

Скриншот c названием фильма

Скриншоты

Время раздачи - по возможности.
[Profile]  [PM] 
Display posts:    
Reply to topic

Current time is: 01-Oct 07:07

All times are UTC + 2



You cannot post new topics in this forum
You cannot reply to topics in this forum
You cannot edit your posts in this forum
You cannot delete your posts in this forum
You cannot vote in polls in this forum
You cannot attach files in this forum
You cannot download files in this forum