В былые времена / Back in the Day (Пол Боргезе / Paul Borghese) [2016, США, драма, спорт, WEB-DLRip] MVO

Reply to topic
 
Author
Message

Satyr ®

Gender: Unknown

Longevity: 11 years

Posts: 15401

Reputation: 55 [+] [-]

Satyr · Post 11-Sep-2016 01:24

[Quote] 

В былые времена / Back in the Day-- Страна: США
Жанр: драма, спорт
Год выпуска: 2016
Продолжительность: 02:01:14
Перевод: Любительский (многоголосый закадровый)
Cубтитры: нет
Режиссер: Пол Боргезе / Paul Borghese
В ролях: Алек Болдуин, Майкл Мэдсен, Шэннен Доэрти, Аннабелла Шиорра, Дэнни Гловер, Уильям ДеМео, Лилло Бранкато, Майк Тайсон, Джозеф Д'Онофрио, Пол Боргезе-Описание: Детство и юность профессионального боксера Энтони Родригеса не были безоблачными. Вспоминая прежние деньки, он мысленно возвращается на бруклинскую улицу Бенсонхерст конца 80-х. Здесь было полно хулиганов, сомнительных заведений, часто слышались выстрелы. Наполовину итальянец, наполовину пуэрториканец, он вырос в жестоком мире насилия и расизма, терпел оскорбления, испытывал нужду. Безработному отцу-алкоголику было наплевать на сына, а заботливая и трудолюбивая мать умерла довольно рано. Не смотря на горечь утраты, Энтони изо всех сил пытался придерживаться моральных устоев, которые она ему привила, и всегда сохранять чувство собственного достоинства. На него обратил внимание босс местной мафии Энцо Девино, он взял парня под свое крыло, когда тот решил заниматься боксом. Энтони стал превращаться в сильного бойца, но здесь бокс был серьезным бизнесом, а Родригес мечтал о спортивной карьере. Для подростка из неблагополучного района добиться успеха в профессиональном боксе – цель почти недостижимая. И все же Энтони многое удалось. Вот только какой ценой?
Сэмпл: http://multi-up.com/1106315
Качество видео: WEB-DLRip
Формат видео: AVI
Видео: MPEG-4 1512 Кбит/сек 720 x 304 (2.368) 23.976
Аудио: AC-3 192 Кбит/сек 2 канала, 48,0 КГц

MediaInfo

Общее
Полное имя : F:\В былые времена - 2016.avi
Формат : AVI
Формат/Информация : Audio Video Interleave
Размер файла : 1,45 Гбайт
Продолжительность : 2 ч. 1 м.
Общий поток : 1713 Кбит/сек
Программа кодирования : VirtualDubMod 1.5.10.3 | www.virtualdub-fr.org || (build 2550/release)
Библиотека кодирования : VirtualDubMod build 2550/release
Видео
Идентификатор : 0
Формат : MPEG-4 Visual
Профиль формата : Advanced Simple@L5
Параметр BVOP формата : 1
Параметр QPel формата : Нет
Параметр GMC формата : Без точки перехода
Параметр матрицы формата : Выборочная
Идентификатор кодека : XVID
Идентификатор кодека/Подсказка : XviD
Продолжительность : 2 ч. 1 м.
Битрейт : 1512 Кбит/сек
Ширина : 720 пикселей
Высота : 304 пикселя
Соотношение сторон : 2,35:1
Частота кадров : 23,976 кадра/сек
Цветовое пространство : YUV
Субдискретизация насыщенности : 4:2:0
Битовая глубина : 8 бит
Тип развёртки : Прогрессивная
Метод сжатия : С потерями
Бит/(Пиксели*Кадры) : 0.288
Размер потока : 1,28 Гбайт (88%)
Библиотека кодирования : XviD 73
Аудио
Идентификатор : 1
Формат : AC-3
Формат/Информация : Audio Coding 3
Расширение режима : CM (complete main)
Параметр Endianness формата : Big
Идентификатор кодека : 2000
Продолжительность : 2 ч. 1 м.
Вид битрейта : Постоянный
Битрейт : 192 Кбит/сек
Каналы : 2 канала
Расположение каналов : Front: L R
Частота : 48,0 КГц
Битовая глубина : 16 бит
Метод сжатия : С потерями
Размер потока : 166 Мбайт (11%)
Выравнивание : Разделение по промежуткам
Продолжительность промежутка : 42 мс. (1,00 видеокадр)
Время предзагрузки промежутка : 500 мс.

Скриншот c названием фильма

Скриншоты

[Profile]  [PM] 
Display posts:    
Reply to topic

Current time is: 25-Sep 00:26

All times are UTC + 2



You cannot post new topics in this forum
You cannot reply to topics in this forum
You cannot edit your posts in this forum
You cannot delete your posts in this forum
You cannot vote in polls in this forum
You cannot attach files in this forum
You cannot download files in this forum