Биркебейнеры / Birkebeinerne (Нильс Гёуп / Nils Gaup) [2016, Норвегия, боевик, драма, приключения, HDRip] VO

Reply to topic
 
Author
Message

Satyr ®

Online

Gender: Unknown

Longevity: 11 years

Posts: 15401

Reputation: 55 [+] [-]

Satyr · Post 11-Sep-2016 01:24

[Quote] 

Биркебейнеры / Birkebeinerne-- Страна: Норвегия
Жанр: боевик, драма, приключения
Год выпуска: 2016
Продолжительность: 01:39:24
Перевод: Одноголосый закадровый (перевод Ольга Тропашко)
Cубтитры: нет
Режиссер: Нильс Гёуп / Nils Gaup
В ролях: Андерс Дальберг, Эльг Элгесем, Пол Сверре Валхейм Хаген, Торбьорн Харр, Беньямин Хельстад, Кристофер Хивью, Стиг Хенрик Хофф, Еппе Леурсен, Николай Ли Каас, Адам Немет
Описание: 1204 год, Норвегию раздирает гражданская война. Незаконнорожденного сына короля Хокона III Сверрессона и Инги из Вартейга хранят в глубокой тайне. Мальчик был внебрачным сыном короля и родился после его смерти, что спровоцировало кровавую междоусобицу. Биркебейнеры (ополчение, созданное его дедом, королем Сверре Сигурдсоном) признали мальчика наследником трона Норвегии. Однако католические священники объявили охоту на ребенка с целью его уничтожения. В 1206 году группа вооруженных биркебейнеров помогла Инги и Хокону бежать на север под покровительством короля Инге Бордссона. По пути их небольшой отряд попал в снежную бурю, но два могучих воина, Торстейн Шевла и Шьервальд Шрукка, продолжали продвигаться на лыжах, неся ребенка на руках. Когда Хокона доставили в Тронхейм, король Инге взял его под своё покровительство.
Сэмпл: http://multi-up.com/1105950
Качество видео: HDRip
Формат видео: AVI
Видео: MPEG-4 1885 Кбит/сек 720 x 304 24.000 fps
Аудио: AC-3 192 Кбит/сек 2 канала, 48,0 КГц

MediaInfo

Формат : AVI
Формат/Информация : Audio Video Interleave
Размер файла : 1,45 Гбайт
Продолжительность : 1 ч. 39 м.
Общий поток : 2086 Кбит/сек
Программа кодирования : VirtualDubMod 1.5.10.3 | www.virtualdub-fr.org || (build 2550/release)
Библиотека кодирования : VirtualDubMod build 2550/release
Видео
Идентификатор : 0
Формат : MPEG-4 Visual
Профиль формата : Advanced Simple@L5
Параметр BVOP формата : 1
Параметр QPel формата : Нет
Параметр GMC формата : Без точки перехода
Параметр матрицы формата : Выборочная
Идентификатор кодека : XVID
Идентификатор кодека/Подсказка : XviD
Продолжительность : 1 ч. 39 м.
Битрейт : 1885 Кбит/сек
Ширина : 720 пикселей
Высота : 304 пикселя
Соотношение сторон : 2,35:1
Частота кадров : 24,000 кадра/сек
Цветовое пространство : YUV
Субдискретизация насыщенности : 4:2:0
Битовая глубина : 8 бит
Тип развёртки : Прогрессивная
Метод сжатия : С потерями
Бит/(Пиксели*Кадры) : 0.359
Размер потока : 1,31 Гбайт (90%)
Библиотека кодирования : XviD 73
Аудио
Идентификатор : 1
Формат : AC-3
Формат/Информация : Audio Coding 3
Расширение режима : CM (complete main)
Параметр Endianness формата : Big
Идентификатор кодека : 2000
Продолжительность : 1 ч. 39 м.
Вид битрейта : Постоянный
Битрейт : 192 Кбит/сек
Каналы : 2 канала
Расположение каналов : Front: L R
Частота : 48,0 КГц
Битовая глубина : 16 бит
Метод сжатия : С потерями
Размер потока : 137 Мбайт (9%)
Выравнивание : Разделение по промежуткам
Продолжительность промежутка : 42 мс. (1,00 видеокадр)
Время предзагрузки промежутка : 500 мс.

Скриншот c названием фильма

Скриншоты

[Profile]  [PM] 
Display posts:    
Reply to topic

Current time is: 26-Sep 03:44

All times are UTC + 2



You cannot post new topics in this forum
You cannot reply to topics in this forum
You cannot edit your posts in this forum
You cannot delete your posts in this forum
You cannot vote in polls in this forum
You cannot attach files in this forum
You cannot download files in this forum