Специальные корреспонденты / Special correspondents (Рики Джервэйс / Ricky Gervais) [2016, США, Великобритания, Канада, комедия, сатира, WEB-DLRip] VO (Vaxywod)

Reply to topic
 
Author
Message

Satyr ®

Gender: Unknown

Longevity: 11 years

Posts: 15401

Reputation: 55 [+] [-]

Satyr · Post 11-Sep-2016 01:24

[Quote] 

Специальные корреспонденты / Special correspondents
Страна: США, Великобритания, Канада
Жанр: комедия, сатира
Год выпуска: 2016
Продолжительность: 01:40:30
Перевод: Одноголосый закадровый Vaxiwod (по оригинальным субтитрам М. Васильева)
Cубтитры: нет
Режиссер: Рики Джервэйс / Ricky Gervais
В ролях: Эрик Бана, Рики Джервэйс, Вера Фармига, Келли Макдональд, Америка Феррера
Описание: Самовлюбленный, наглый журналист Фрэнк и его преданный звукорежиссер, добрый толстяк Ян работают на маленькой радиостанции в Нью-Йорке. Однажды они получают задание: подготовить материал о гражданской войне в Эквадоре. По дороге в аэропорт они умудряются потерять все документы. И тогда им приходит в голову блистательная идея: они прячутся на чердаке в здании напротив своей радиостанции и начинают вести свои репортажи оттуда, притворяясь, что находятся на другом конце света. Их отчеты о пребывании в зоне боевых действий пользуются сумасшедшим успехом. Но вскоре, чтобы скрыть одну ложь, им приходится придумать вторую и третью и так до тех пор, пока их авантюра не превращается в скандал международного масштаба...
Доп. информация: Полнометражный фильм сервиса Netfilx
Ремейк французского фильма Envoyez tres speciaux (2009)
Фильм начинается как вполне обычная комедия положений, но, перевалив за середину, превращается в жесткую сатиру. Американские критики обвинили авторов в неуважении к работе журналистов в горячих точках и предательстве идеалов гуманизма и политкорректности.
Столь радикальные оценки пошли на пользу картине, и шумиха в СМИ стала лучшей рекламой для фильма.
Исходник релиза: http://torrentsland.com.ua/forum/viewtopic.php?t=5223817
Сэмпл: http://sendfile.su/1242254
Качество видео: WEB-DLRip
Формат видео: AVI
Видео: 1769 Kbps, 720x384 (1.85:1) 24 000 fps, MPEG 4 XviD
Аудио: 192 Kbps, 48.0 KHz, 16 bits, 2 ch, AC 3

MediaInfo

General
Complete name : D:\Корреспонденты\Корреспонденты2016.avi
Format : AVI
Format/Info : Audio Video Interleave
File size : 1.38 GiB
Duration : 1h 40mn
Overall bit rate : 1 970 Kbps
Writing application : VirtualDubMod 1.5.10.2 (build 2542/release)
Writing library : VirtualDub build 35491/release
Video
ID : 0
Format : MPEG-4 Visual
Format profile : Advanced Simple@L5
Format settings, BVOP : 2
Format settings, QPel : No
Format settings, GMC : No warppoints
Format settings, Matrix : Default (H.263)
Muxing mode : Packed bitstream
Codec ID : XVID
Codec ID/Hint : XviD
Duration : 1h 40mn
Bit rate : 1 769 Kbps
Width : 720 pixels
Height : 384 pixels
Display aspect ratio : 1.85:1
Frame rate : 24.000 fps
Color space : YUV
Chroma subsampling : 4:2:0
Bit depth : 8 bits
Scan type : Progressive
Compression mode : Lossy
Bits/(Pixel*Frame) : 0.267
Stream size : 1.24 GiB (90%)
Writing library : XviD 66
Audio
ID : 1
Format : AC-3
Format/Info : Audio Coding 3
Mode extension : CM (complete main)
Format settings, Endianness : Big
Codec ID : 2000
Duration : 1h 40mn
Bit rate mode : Constant
Bit rate : 192 Kbps
Channel(s) : 2 channels
Channel positions : Front: L R
Sampling rate : 48.0 KHz
Bit depth : 16 bits
Compression mode : Lossy
Stream size : 138 MiB (10%)
Alignment : Aligned on interleaves
Interleave, duration : 42 ms (1.00 video frame)
Interleave, preload duration : 512 ms

Скриншот c названием фильма

Скриншоты

[Profile]  [PM] 
Display posts:    
Reply to topic

Current time is: 29-Sep 18:22

All times are UTC + 2



You cannot post new topics in this forum
You cannot reply to topics in this forum
You cannot edit your posts in this forum
You cannot delete your posts in this forum
You cannot vote in polls in this forum
You cannot attach files in this forum
You cannot download files in this forum