Конвой / Le convoi (Фредерик Шёндёрфер / Frédéric Schoendoerffer) [2016, Франция, триллер, криминал, BDRip] AVO (Карповский)

Reply to topic
 
Author
Message

Satyr ®

Gender: Unknown

Longevity: 11 years

Posts: 15401

Reputation: 55 [+] [-]

Satyr · Post 11-Sep-2016 01:24

[Quote] 

Конвой / Le convoi
Страна: Франция
Студия: Canal+ [fr], Carcharodon, CNC, Ciné, Cinéfrance 1888, D8, Indie Invest, Orange Studio, Rhône-Alpes Cinéma
Жанр: Триллер, криминал
Год выпуска: 2016
Продолжительность: 01:42:30
Перевод: Авторский (одноголосый закадровый) Антон Карповский
Cубтитры: нет
Оригинальная аудиодорожка: нет
Режиссер: Фредерик Шёндёрфер / Frédéric Schoendoerffer
В ролях: Бенуа Мажимель, Рем Кериси, Тауфик Жаллаб, Мэхди Белемлих, Эмир Эль Касим, Леон Гарель, Софтан Каммес, Фэд Амара, Ален Фиглаж, Карин Мартан-Превель, Фэнни Гюдеко, Ясин Бен Моусса, Оливье Одибер
Описание: Фильм о страстях тех, кто вынужден рисковать, об исламской семье, где идут за старшим братом и мечтают о роскошной жизни, прозябая в нищете. Этих людей несёт ветер криминального азарта, он подгоняет их роскошные машины, полные наркотиков, по автострадам через блокпосты и засады. Весь фильм проходит в движении машин. Кто-то едет спереди, чтобы проведать обстановку, кто-то везет основной груз, сзади страхует Алекс, - прожженый профессионал, который хладнокровно подчищает грязную работу своих не слишком ловких друзей.
Дополнительная информация:
Автор релиза - ylnian
Заказ перевода у Антона Карповского (июнь 2016) - ylnian
За сборку дороги спасибо rammzez
Источник для рипа - Blu-Ray (FRA) - Le.Convoi.2016.FRENCH.BluRay.AVC.Remux.DTS-HD.MA-KLI
Описание - из рецензии Антона Карповского


Сэмпл: https://yadi.sk/i/XSjV_6vLsNaeB
Качество видео: BDRip
Формат видео: AVI
Видео: XviD, 720x304 (2,35:1), 24.000 fps, 1580 kbps, 0.301 bit/pixel
Аудио: Русский AC3, 48000 Гц, 6ch, 448 kbps

MediaInfo

Общее
Полное имя : B:\Le.convoi.2016.BDRip-ylnian.avi
Формат : AVI
Формат/Информация : Audio Video Interleave
Размер файла : 1,46 Гбайт
Продолжительность : 1 ч. 42 м.
Общий поток : 2038 Кбит/сек
Программа кодирования : VirtualDubMod 1.5.10.2 (build 2540/release)
Библиотека кодирования : VirtualDubMod build 2540/release
Видео
Идентификатор : 0
Формат : MPEG-4 Visual
Профиль формата : Advanced Simple@L5
Параметр BVOP формата : 1
Параметр QPel формата : Нет
Параметр GMC формата : Без точки перехода
Параметр матрицы формата : Default (MPEG)
Идентификатор кодека : XVID
Идентификатор кодека/Подсказка : XviD
Продолжительность : 1 ч. 42 м.
Битрейт : 1580 Кбит/сек
Ширина : 720 пикселей
Высота : 304 пикселя
Соотношение сторон : 2,35:1
Частота кадров : 24,000 кадра/сек
Цветовое пространство : YUV
Субдискретизация насыщенности : 4:2:0
Битовая глубина : 8 бит
Тип развёртки : Прогрессивная
Метод сжатия : С потерями
Бит/(Пиксели*Кадры) : 0.301
Размер потока : 1,13 Гбайт (78%)
Библиотека кодирования : XviD 67
Аудио
Идентификатор : 1
Формат : AC-3
Формат/Информация : Audio Coding 3
Расширение режима : CM (complete main)
Параметр Endianness формата : Big
Идентификатор кодека : 2000
Продолжительность : 1 ч. 42 м.
Вид битрейта : Постоянный
Битрейт : 448 Кбит/сек
Каналы : 6 каналов
Расположение каналов : Front: L C R, Side: L R, LFE
Частота : 48,0 КГц
Частота кадров : 31,250 кадров/сек (1536 spf)
Метод сжатия : С потерями
Размер потока : 328 Мбайт (22%)
Выравнивание : Разделение по промежуткам
Продолжительность промежутка : 42 мс. (1,00 видеокадр)
Время предзагрузки промежутка : 500 мс.

Скриншот c названием фильма

Скриншоты

[Profile]  [PM] 
Display posts:    
Reply to topic

Current time is: 18-Sep 16:08

All times are UTC + 2



You cannot post new topics in this forum
You cannot reply to topics in this forum
You cannot edit your posts in this forum
You cannot delete your posts in this forum
You cannot vote in polls in this forum
You cannot attach files in this forum
You cannot download files in this forum