И грянул шторм / The Finest Hours (Крэйг Гиллеспи / Craig Gillespie) [2016, США, Боевик, триллер, драма, история, BDRip] Dub + Original (Eng) + Subs (Rus, Eng)

Reply to topic
 
Author
Message

Satyr ®

Online

Gender: Unknown

Longevity: 11 years

Posts: 15401

Reputation: 55 [+] [-]

Satyr · Post 11-Sep-2016 01:24

[Quote] 

И грянул шторм / The Finest Hours- Год выхода: 2016
Выпущено: США / Walt Disney Pictures
Жанр: боевик, триллер, драма, история
Продолжительность: 01:57:18
Перевод: Профессиональный (полное дублирование) BD EUR |Лицензия|
Cубтитры: Русские (форсированные + полные), Английские (полные, SDH) (внешние .srt*)
Оригинальная аудиодорожка: Английская-Режиссер:
Крэйг Гиллеспи / Craig Gillespie-В ролях:
Крис Пайн, Кейси Аффлек, Бен Фостер, Эрик Бана, Холлидей Грейнджер, Джон Ортис, Кайл Галлнер, Джон Магаро, Грэм МакТавиш, Майкл Рэймонд-Джеймс, Бо Напп, Джош Стюарт, Абрахам Бенруби, Кейнан Лонсдейл, Рэйчел Броснахэн, Бенжамин Колдык, Мэттью Мехер, Джесси Габбар, Александр Кук, Дэнни Коннелли-О фильме:
Сюжет фильма основан на реальных событиях, произошедших в 1952 году, когда сотрудники береговой охраны в самый разгар шторма, используя деревянные моторные лодки, пытались спасти экипаж двух нефтяных танкеров.-Релиз групп | | IMDB | КиноПоиск| Сэмпл |-Качество: BDRip [The Finest Hours 2016 1080p TWN Blu-ray AVC DTS-HD HR 7.1-TTG]
Формат: AVI
Видео: 720x304 (2.37:1), 23.976 fps, XviD build 67 ~1890 kbps avg, 0.36 bit/pixel
Аудио #1: 48 kHz, AC3 Dolby Digital, 3/2 (L,C,R,l,r) + LFE ch, ~384.00 kbps avg (RUS)
Аудио #2: 48 kHz, AC3 Dolby Digital, 3/2 (L,C,R,l,r) + LFE ch, ~384.00 kbps avg (ENG)-

Скриншоты

-

MediaInfo

Общее
Полное имя                               : D:\I_ gryanul_shtorm_2016_BDRip_[2.18]_by_Dalemake.avi
Формат                                   : AVI
Формат/Информация                        : Audio Video Interleave
Профиль формата                          : OpenDML
Размер файла                             : 2,18 Гбайт
Продолжительность                        : 1 ч. 57 м.
Общий поток                              : 2665 Кбит/сек
Программа кодирования                    : VirtualDubMod 1.5.10.3 | www.virtualdub-fr.org || (build 2550/release)
Библиотека кодирования                   : VirtualDubMod build 2550/release
Видео
Идентификатор                            : 0
Формат                                   : MPEG-4 Visual
Профиль формата                          : Advanced Simple@L5
Параметр BVOP формата                    : 1
Параметр QPel формата                    : Нет
Параметр GMC формата                     : Без точки перехода
Параметр матрицы формата                 : Выборочная
Идентификатор кодека                     : XVID
Идентификатор кодека/Подсказка           : XviD
Продолжительность                        : 1 ч. 57 м.
Битрейт                                  : 1880 Кбит/сек
Ширина                                   : 720 пикселей
Высота                                   : 304 пикселя
Соотношение сторон                       : 2,35:1
Частота кадров                           : 23,976 кадра/сек
Цветовое пространство                    : YUV
Субдискретизация насыщенности            : 4:2:0
Битовая глубина                          : 8 бит
Тип развёртки                            : Прогрессивная
Метод сжатия                             : С потерями
Бит/(Пиксели*Кадры)                      : 0.358
Размер потока                            : 1,54 Гбайт (71%)
Библиотека кодирования                   : XviD 67
Аудио #1
Идентификатор                            : 1
Формат                                   : AC-3
Формат/Информация                        : Audio Coding 3
Расширение режима                        : CM (complete main)
Параметр Endianness формата              : Big
Идентификатор кодека                     : 2000
Продолжительность                        : 1 ч. 57 м.
Вид битрейта                             : Постоянный
Битрейт                                  : 384 Кбит/сек
Каналы                                   : 6 каналов
Расположение каналов                     : Front: L C R, Side: L R, LFE
Частота                                  : 48,0 КГц
Битовая глубина                          : 16 бит
Метод сжатия                             : С потерями
Размер потока                            : 322 Мбайт (14%)
Выравнивание                             : Разделение по промежуткам
Продолжительность промежутка             : 42  мс. (1,00 видеокадр)
Время предзагрузки промежутка            : 500  мс.
Аудио #2
Идентификатор                            : 2
Формат                                   : AC-3
Формат/Информация                        : Audio Coding 3
Расширение режима                        : CM (complete main)
Параметр Endianness формата              : Big
Идентификатор кодека                     : 2000
Продолжительность                        : 1 ч. 57 м.
Вид битрейта                             : Постоянный
Битрейт                                  : 384 Кбит/сек
Каналы                                   : 6 каналов
Расположение каналов                     : Front: L C R, Side: L R, LFE
Частота                                  : 48,0 КГц
Битовая глубина                          : 16 бит
Метод сжатия                             : С потерями
Размер потока                            : 322 Мбайт (14%)
Выравнивание                             : Разделение по промежуткам
Продолжительность промежутка             : 42  мс. (1,00 видеокадр)
Время предзагрузки промежутка            : 500  мс.
-
[Profile]  [PM] 
Display posts:    
Reply to topic

Current time is: 01-Oct 07:32

All times are UTC + 2



You cannot post new topics in this forum
You cannot reply to topics in this forum
You cannot edit your posts in this forum
You cannot delete your posts in this forum
You cannot vote in polls in this forum
You cannot attach files in this forum
You cannot download files in this forum