И грянул шторм / The Finest Hours (Крэйг Гиллеспи / Craig Gillespie) [2016, США, боевик, триллер, драма, история, BDRip-AVC] Dub + Sub Rus

Reply to topic
 
Author
Message

Satyr ®

Online

Gender: Unknown

Longevity: 11 years

Posts: 15401

Reputation: 55 [+] [-]

Satyr · Post 11-Sep-2016 01:24

[Quote] 

И грянул шторм / The Finest Hours
Страна: США
Жанр: боевик, триллер, драма, история
Год выпуска: 2016
Продолжительность: 01:57:18
Перевод: Профессиональный (дублированный) Лицензия Blu-ray EUR
Cубтитры: русские (форсированные, полные), украинские (полные), английские (полные, SDH)
Режиссер: Крэйг Гиллеспи / Craig Gillespie
В ролях: Крис Пайн, Кейси Аффлек, Бен Фостер, Эрик Бана, Холлидей Грейнджер, Джон Ортис, Кайл Галлнер, Джон Магаро, Грэм МакТавиш, Майкл Рэймонд-Джеймс, Бо Напп, Джош Стюарт
Описание: Сюжет фильма основан на реальных событиях, произошедших в 1952 году, когда сотрудники береговой охраны в самый разгар шторма, используя деревянные моторные лодки, пытались спасти экипаж двух нефтяных танкеров.
Сэмпл: http://sendfile.su/1241346
Качество видео: BDRip-AVC [Blu-ray Remux / 1080p]
Формат видео: MKV
Аудио кодек: AC3
Видео: 1329 Кбит/сек, 960x400 (2.40:1), 23,976 кадр/сек, AVC
Аудио: 448 Кбит/сек, 48 КГц, 16 бит, 5.1, AC3
Навигация по главам: есть

MediaInfo

Unique ID : 246420973779962671380766391037714606934 (0xB962F40710671811A0B5384FD1D5AB56)
Complete name : E:\Zona Downloads\The Finest Hours.2016.BDRip.mkv
Format : Matroska
Format version : Version 4 / Version 2
File size : 1.46 GiB
Duration : 1h 57mn
Overall bit rate : 1 777 Kbps
Movie name : The Finest Hours (2016) (New-Team) (Rip by stalkerok)
Encoded date : UTC 2016-06-08 11:32:02
Writing application : mkvmerge v8.6.1 ('Flying') 64bit
Writing library : libebml v1.3.3 + libmatroska v1.4.4
DURATION : 01:57:18.624000000
NUMBER_OF_FRAMES : 219957
NUMBER_OF_BYTES : 394162944
_STATISTICS_WRITING_APP : mkvmerge v8.6.1 ('Flying') 64bit
_STATISTICS_WRITING_DATE_UTC : 2016-06-08 11:32:02
_STATISTICS_TAGS : BPS DURATION NUMBER_OF_FRAMES NUMBER_OF_BYTES
Video
ID : 1
Format : AVC
Format/Info : Advanced Video Codec
Format profile : High@L4.1
Format settings, CABAC : Yes
Format settings, ReFrames : 14 frames
Codec ID : V_MPEG4/ISO/AVC
Duration : 1h 57mn
Bit rate : 1 329 Kbps
Width : 960 pixels
Height : 400 pixels
Display aspect ratio : 2.40:1
Frame rate : 23.976 fps
Color space : YUV
Chroma subsampling : 4:2:0
Bit depth : 8 bits
Scan type : Progressive
Bits/(Pixel*Frame) : 0.144
Stream size : 1.06 GiB (73%)
Title : The Finest Hours (2016) (New-Team) (Rip by stalkerok)
Writing library : x264 core 148 r2665kMod a01e339
Encoding settings : cabac=1 / ref=14 / deblock=1:-3:-2 / analyse=0x3:0x133 / me=umh / subme=10 / psy=1 / fade_compensate=0.00 / psy_rd=1.00:0.00 / mixed_ref=1 / me_range=32 / chroma_me=1 / trellis=2 / 8x8dct=1 / cqm=0 / deadzone=21,11 / fast_pskip=0 / chroma_qp_offset=-2 / threads=12 / lookahead_threads=3 / sliced_threads=0 / nr=0 / decimate=0 / interlaced=0 / bluray_compat=0 / constrained_intra=0 / fgo=0 / bframes=14 / b_pyramid=2 / b_adapt=2 / b_bias=0 / direct=3 / weightb=1 / open_gop=0 / weightp=2 / keyint=240 / keyint_min=23 / scenecut=40 / intra_refresh=0 / rc_lookahead=60 / rc=2pass / mbtree=0 / bitrate=1329 / ratetol=1.0 / qcomp=0.65 / qpmin=0 / qpmax=69 / qpstep=4 / cplxblur=20.0 / qblur=0.5 / vbv_maxrate=50000 / vbv_bufsize=62500 / nal_hrd=none / filler=0 / ip_ratio=1.40 / pb_ratio=1.30 / aq=1:0.85
Default : Yes
Forced : No
DURATION : 01:57:18.574000000
NUMBER_OF_FRAMES : 168757
NUMBER_OF_BYTES : 1167550614
_STATISTICS_WRITING_APP : mkvmerge v8.6.1 ('Flying') 64bit
_STATISTICS_WRITING_DATE_UTC : 2016-06-08 11:32:02
_STATISTICS_TAGS : BPS DURATION NUMBER_OF_FRAMES NUMBER_OF_BYTES
Audio
ID : 2
Format : AC-3
Format/Info : Audio Coding 3
Mode extension : CM (complete main)
Format settings, Endianness : Big
Codec ID : A_AC3
Duration : 1h 57mn
Bit rate mode : Constant
Bit rate : 448 Kbps
Channel(s) : 6 channels
Channel positions : Front: L C R, Side: L R, LFE
Sampling rate : 48.0 KHz
Bit depth : 16 bits
Compression mode : Lossy
Stream size : 376 MiB (25%)
Language : Russian
Default : Yes
Forced : No
Text #1
ID : 3
Format : UTF-8
Codec ID : S_TEXT/UTF8
Codec ID/Info : UTF-8 Plain Text
Title : Forced, iTunes
Language : Russian
Default : Yes
Forced : No
Text #2
ID : 4
Format : UTF-8
Codec ID : S_TEXT/UTF8
Codec ID/Info : UTF-8 Plain Text
Title : iTunes
Language : Russian
Default : No
Forced : No
Text #3
ID : 5
Format : UTF-8
Codec ID : S_TEXT/UTF8
Codec ID/Info : UTF-8 Plain Text
Title : iTunes
Language : Ukrainian
Default : No
Forced : No
Text #4
ID : 6
Format : UTF-8
Codec ID : S_TEXT/UTF8
Codec ID/Info : UTF-8 Plain Text
Title : iTunes
Language : English
Default : No
Forced : No
Text #5
ID : 7
Format : UTF-8
Codec ID : S_TEXT/UTF8
Codec ID/Info : UTF-8 Plain Text
Title : BD
Language : English
Default : No
Forced : No
Text #6
ID : 8
Format : UTF-8
Codec ID : S_TEXT/UTF8
Codec ID/Info : UTF-8 Plain Text
Title : SDH
Language : English
Default : No
Forced : No
Menu
00:00:00.000 : en:Chapter 01
00:09:13.887 : en:Chapter 02
00:14:22.195 : en:Chapter 03
00:19:52.108 : en:Chapter 04
00:22:56.792 : en:Chapter 05
00:28:34.379 : en:Chapter 06
00:34:05.210 : en:Chapter 07
00:36:59.384 : en:Chapter 08
00:42:50.902 : en:Chapter 09
00:45:01.157 : en:Chapter 10
00:46:59.442 : en:Chapter 11
00:48:44.463 : en:Chapter 12
00:50:12.551 : en:Chapter 13
00:55:53.141 : en:Chapter 14
01:04:47.967 : en:Chapter 15
01:08:58.634 : en:Chapter 16
01:11:38.836 : en:Chapter 17
01:16:16.489 : en:Chapter 18
01:20:30.325 : en:Chapter 19
01:33:30.480 : en:Chapter 20
01:42:27.641 : en:Chapter 21
01:49:40.324 : en:Chapter 22

Скриншот c названием фильма

Скриншоты

[Profile]  [PM] 
Display posts:    
Reply to topic

Current time is: 26-Sep 03:13

All times are UTC + 2



You cannot post new topics in this forum
You cannot reply to topics in this forum
You cannot edit your posts in this forum
You cannot delete your posts in this forum
You cannot vote in polls in this forum
You cannot attach files in this forum
You cannot download files in this forum