Девушка в лесу / Girl in Woods (Джереми Бенсон / Jeremy Benson) [2016, США, ужасы, триллер, драма, WEB-DLRip] VO (ХидиДок)

Reply to topic
 
Author
Message

Satyr ®

Gender: Unknown

Longevity: 15 years

Posts: 22045

Reputation: 56 [+] [-]

Satyr · Post 11-Sep-2016 01:24

[Quote] 

Девушка в лесу / Girl in Woods
Страна: США
Жанр: ужасы, триллер, драма
Год выпуска: 2016
Продолжительность: 01:28:02
Перевод: Одноголосый закадровый (ХидиДок)
Cубтитры: нет
Режиссер: Джереми Бенсон / Jeremy Benson
В ролях: Джульет Ривз Лондон, Харизма Карпентер, Джереми Лондон, Ли Перкинс, Джон Стилл, Shaun Benson, Rezia Massey, Lauren Bayleigh White, Росс Уильямс
Описание: Романтические каникулы в лесном домике для влюблённой пары закончились смертью молодого человека. И его подруга осталась наедине с окровавленным трупом, дикой природой и собственным тёмным прошлым. К тому же Грейс, Девушка в лесу, замечает таинственную фигуру, идущую за ней по пятам. В этой стрессовой ситуации Грейс начинает вспоминать своих давно позабытых отца и мать. Воспоминания из прошлого имеют непосредственное отношение к настоящему и скоро Грейс удастся полностью восстановить картину своего трагического детства, скоро Девушка в лесу узнает мрачную тайну, не дававшую ей покоя всё это время. И далее её ждут два варианта : либо кошмарная правда сломает её ментально и физически, либо Грейс отыщет в себе необходимые силы, чтобы выбраться из леса и нарастающего безумия.
Сэмпл: http://multi-up.com/1105080
Качество видео: WEB-DLRip
Формат видео: AVI
Видео: XviD 73, 720x304, (2,35:1), 23,976 fps, 1828 Кбит/с, 8 бит
Аудио: Русский (AC-3, 2 ch (Front: L R), 48,0 KHz, 192 Kbps)
Аудио 2: Английский (AC-3, 2 ch (Front: L R), 48,0 KHz, 192 Kbps)

MediaInfo

Общее
Полное имя : F:\Видеофильмы\В и д е о\Девушка в лесу (ужасы триллер драма 2016г).avi
Формат : AVI
Формат/Информация : Audio Video Interleave
Размер файла : 1,37 Гбайт
Продолжительность : 1 ч. 28 м.
Общий поток : 2226 Кбит/сек
Программа кодирования : VirtualDubMod 1.5.10.3 | www.virtualdub-fr.org || (build 2550/release)
Библиотека кодирования : VirtualDubMod build 2550/release
Видео
Идентификатор : 0
Формат : MPEG-4 Visual
Профиль формата : Advanced Simple@L5
Параметр BVOP формата : 2
Параметр QPel формата : Нет
Параметр GMC формата : Без точки перехода
Параметр матрицы формата : Default (H.263)
Идентификатор кодека : XVID
Идентификатор кодека/Подсказка : XviD
Продолжительность : 1 ч. 28 м.
Битрейт : 1828 Кбит/сек
Ширина : 720 пикселей
Высота : 304 пикселя
Соотношение сторон : 2,35:1
Частота кадров : 23,976 (23976/1000) кадра/сек
Цветовое пространство : YUV
Субдискретизация насыщенности : 4:2:0
Битовая глубина : 8 бит
Тип развёртки : Прогрессивная
Метод сжатия : С потерями
Бит/(Пиксели*Кадры) : 0.348
Размер потока : 1,12 Гбайт (82%)
Библиотека кодирования : XviD 73
Аудио #1
Идентификатор : 1
Формат : AC-3
Формат/Информация : Audio Coding 3
Расширение режима : CM (complete main)
Параметр Endianness формата : Big
Идентификатор кодека : 2000
Продолжительность : 1 ч. 28 м.
Вид битрейта : Постоянный
Битрейт : 192 Кбит/сек
Каналы : 2 канала
Расположение каналов : Front: L R
Частота : 48,0 КГц
Частота кадров : 31,250 кадров/сек (1536 spf)
Метод сжатия : С потерями
Размер потока : 121 Мбайт (9%)
Выравнивание : Разделение по промежуткам
Продолжительность промежутка : 42 мс. (1,00 видеокадр)
Время предзагрузки промежутка : 500 мс.
Аудио #2
Идентификатор : 2
Формат : AC-3
Формат/Информация : Audio Coding 3
Расширение режима : CM (complete main)
Параметр Endianness формата : Big
Идентификатор кодека : 2000
Продолжительность : 1 ч. 28 м.
Вид битрейта : Постоянный
Битрейт : 192 Кбит/сек
Каналы : 2 канала
Расположение каналов : Front: L R
Частота : 48,0 КГц
Частота кадров : 31,250 кадров/сек (1536 spf)
Метод сжатия : С потерями
Размер потока : 121 Мбайт (9%)
Выравнивание : Разделение по промежуткам
Продолжительность промежутка : 42 мс. (1,00 видеокадр)
Время предзагрузки промежутка : 500 мс.

Скриншот c названием фильма

Скриншоты

[Profile]  [PM] 
Display posts:    
Reply to topic

Current time is: 25-Jul 06:44

All times are UTC + 2



You cannot post new topics in this forum
You cannot reply to topics in this forum
You cannot edit your posts in this forum
You cannot delete your posts in this forum
You cannot vote in polls in this forum
You cannot attach files in this forum
You cannot download files in this forum