Кровавый апельсин / Blood Orange (Тоби Тобиаш / Toby Tobias) [2016, Великобритания, Испания, Триллер, WEB-DLRip] MVO (Paradox)

Reply to topic
 
Author
Message

Satyr ®

Online

Gender: Unknown

Longevity: 11 years

Posts: 15401

Reputation: 55 [+] [-]

Satyr · Post 11-Sep-2016 01:24

[Quote] 

Кровавый апельсин / Blood Orange
Страна: Великобритания, Испания
Жанр: Триллер
Год выпуска: 2016
Продолжительность: 01:23:30
Перевод: Любительский (многоголосый закадровый) Paradox
Cубтитры: нет
Режиссер: Тоби Тобиаш / Toby Tobias
В ролях: Бен Лэмб, Кейси Барнфилд, Антонио Магро, Игги Поп...
Описание: Триллер «Кровавый апельсин» с Игги Попом в главной роли. Певец сыграет стареющую рок-звезду, который проживает на уединённой вилле в Испании, со своей молодой женой Изабелль. Однажды их уют нарушает появление мужчины по имени Лукас. Он был некогда возлюбленным Изабелль и теперь утверждает, что она украла у него наследство и требует вернуть.
Доп. информация: Роли озвучивали: Варвара Чабан, Владимир Рыбальченко, Даниил Эльдаров, Александр Зачиняев
Сэмпл: http://sendfile.su/1241133
Качество видео: WEB-DLRip
Формат видео: AVI
Видео: 640x272 (2.35:1), 24.000 fps, XviD build 73 ~1110 kbps avg, 0.27 bit/pixel
Аудио: 48 kHz, MPEG Layer 3, 2 ch, ~128.00 kbps avg

MediaInfo

General
Complete name : E:\Zona Downloads\Krovavyj.apel'sin.2016.WEB-DLRip.avi
Format : AVI
Format/Info : Audio Video Interleave
File size : 745 MiB
Duration : 1h 23mn
Overall bit rate : 1 248 Kbps
Writing application : VirtualDubMod 1.5.10.3 (build 2550/release)
Writing library : VirtualDubMod build 2550/release
Video
ID : 0
Format : MPEG-4 Visual
Format profile : Advanced Simple@L5
Format settings, BVOP : 1
Format settings, QPel : No
Format settings, GMC : No warppoints
Format settings, Matrix : Default (MPEG)
Codec ID : DX50
Codec ID/Hint : DivX 5
Duration : 1h 23mn
Bit rate : 1 110 Kbps
Width : 640 pixels
Height : 272 pixels
Display aspect ratio : 2.35:1
Frame rate : 24.000 fps
Color space : YUV
Chroma subsampling : 4:2:0
Bit depth : 8 bits
Scan type : Progressive
Compression mode : Lossy
Bits/(Pixel*Frame) : 0.266
Stream size : 663 MiB (89%)
Writing library : XviD 73
Audio
ID : 1
Format : MPEG Audio
Format version : Version 1
Format profile : Layer 3
Codec ID : 55
Codec ID/Hint : MP3
Duration : 1h 23mn
Bit rate mode : Constant
Bit rate : 128 Kbps
Channel(s) : 2 channels
Sampling rate : 48.0 KHz
Compression mode : Lossy
Stream size : 76.5 MiB (10%)
Alignment : Aligned on interleaves
Interleave, duration : 42 ms (1.00 video frame)
Interleave, preload duration : 504 ms
Writing library : LAME3.99r
Encoding settings : -m s -V 4 -q 2 -lowpass 17 -b 128

Скриншот c названием фильма

Скриншоты

[Profile]  [PM] 
Display posts:    
Reply to topic

Current time is: 20-Sep 21:22

All times are UTC + 2



You cannot post new topics in this forum
You cannot reply to topics in this forum
You cannot edit your posts in this forum
You cannot delete your posts in this forum
You cannot vote in polls in this forum
You cannot attach files in this forum
You cannot download files in this forum