Дедушка легкого поведения / Dirty Grandpa (Дэн Мазер / Dan Mazer) [2016, США, комедия, BDRip-AVC] [Театральная версия / Theatrical Cut] Dub + Original + Sub (eng)

Reply to topic
 
Author
Message

Satyr ®

Online

Gender: Unknown

Longevity: 11 years

Posts: 15401

Reputation: 55 [+] [-]

Satyr · Post 11-Sep-2016 01:24

[Quote] 

Дедушка легкого поведения / Dirty Grandpa«This is Jason. He's a little worried about his grandpa»- Страна: США
Жанр: комедия
Год выпуска: 2016
Продолжительность: 01:42:04
Перевод: Профессиональный (полное дублирование) (iTunes)
Оригинальная аудиодорожка: английский
Cубтитры: английские (полные)
Навигация по главам: есть
Режиссеры: Дэн Мазер / Dan Mazer
В ролях: Роберт Де Ниро, Зак Эфрон, Зои Дойч, Обри Плаза, Джейсон Манцукас, Дермот Малруни, Джулианна Хаф, Джеффри Бауэр-Чепман, Брэндон Майкал Смит, Джейк Пикинг, Майкл Хадсон, Адам Палли, Мо Коллинз, Генри Жебровский, Катрин Дайер, Дина Дилл, Лэйн Кэрлок, Кристофер Сеттикейс, Эрик Гойнс, Гэвин Мунн
Описание: Джейсон, покладистый правильный парень, накануне свадьбы вляпывается в увеселительную поездку к морю со своим дедом, отставным генералом с легким нравом, бурной фантазией и вполне определенными потребностями… И, похоже, дедские каникулы изменят жизнь Джейсона навсегда!

Качество видео: BDRip-AVC (исходник - Blu-ray|DIRTY_GRANDPA_BLUEBIRD)
Формат видео: MKV
Видео: x264, 1152х480 (2.40:1), 23,976 fps, ~2480 kbps, 0.187 bit/pixel
Аудио 1: 48 kHz, AC3 Dolby Digital, 3/2 (L,C,R,l,r) + LFE ch, ~384 kbps [русский]
Аудио 2: 48 kHz, AC3 Dolby Digital, 2/0 (L,R) ch, ~192 kbps [английский]
Формат субтитров: softsub (SRT)

MediaInfo | x264 log

Format : Matroska
Format version : Version 4 / Version 2
File size : 2.16 GiB
Duration : 1h 42mn
Overall bit rate : 3 032 Kbps
Movie name : Дедушка легкого поведения / Dirty Grandpa [Theatrical Cut] (2016) :: AFM ::
Encoded date : UTC 2016-06-08 07:01:23
Writing application : mkvmerge v8.3.0 ('Over the Horizon') 32bit
Writing library : libebml v1.3.1 + libmatroska v1.4.2
Video
ID : 1
Format : AVC
Format/Info : Advanced Video Codec
Format profile : High@L4.1
Format settings, CABAC : Yes
Format settings, ReFrames : 11 frames
Codec ID : V_MPEG4/ISO/AVC
Duration : 1h 42mn
Bit rate : 2 480 Kbps
Width : 1 152 pixels
Height : 480 pixels
Display aspect ratio : 2.40:1
Frame rate mode : Constant
Frame rate : 23.976 fps
Color space : YUV
Chroma subsampling : 4:2:0
Bit depth : 8 bits
Scan type : Progressive
Bits/(Pixel*Frame) : 0.187
Stream size : 1.71 GiB (79%)
Title : BDRip by AFM [torrentsland.com.ua]
Writing library : x264 core 148 r2665+53 6629127 t_mod_Custom [8-bit@all X86_64]
Encoding settings : cabac=1 / ref=11 / deblock=1:-2:-2 / analyse=0x3:0x113 / me=umh / subme=10 / psy=1 / fade_compensate=0.00 / psy_rd=1.00:0.00 / mixed_ref=1 / me_range=32 / chroma_me=1 / trellis=2 / 8x8dct=1 / cqm=0 / deadzone=21,11 / fast_pskip=0 / chroma_qp_offset=-2 / threads=6 / lookahead_threads=1 / sliced_threads=0 / nr=0 / decimate=0 / interlaced=0 / bluray_compat=0 / constrained_intra=0 / fgo=0 / bframes=13 / b_pyramid=2 / b_adapt=2 / b_bias=0 / direct=3 / weightb=1 / open_gop=0 / weightp=2 / keyint=250 / keyint_min=23 / scenecut=40 / intra_refresh=0 / rc_lookahead=40 / rc=2pass / mbtree=0 / bitrate=2480 / ratetol=1.0 / qcomp=0.65 / qpmin=0:0:0 / qpmax=69:69:69 / qpstep=4 / cplxblur=20.0 / qblur=0.5 / vbv_maxrate=50000 / vbv_bufsize=62500 / nal_hrd=none / filler=0 / ip_ratio=1.35 / pb_ratio=1.30 / aq=1:0.85 / aq-sensitivity=10.00 / aq-factor=1.00:1.00:1.00 / aq2=0 / aq3=0
Language : English
Default : Yes
Forced : No
Audio #1
ID : 2
Format : AC-3
Format/Info : Audio Coding 3
Mode extension : CM (complete main)
Format settings, Endianness : Big
Codec ID : A_AC3
Duration : 1h 42mn
Bit rate mode : Constant
Bit rate : 384 Kbps
Channel(s) : 6 channels
Channel positions : Front: L C R, Side: L R, LFE
Sampling rate : 48.0 KHz
Compression mode : Lossy
Stream size : 280 MiB (13%)
Title : Dub, AC3 5.1 ~384 kbps
Language : Russian
Default : Yes
Forced : No
Audio #2
ID : 3
Format : AC-3
Format/Info : Audio Coding 3
Mode extension : CM (complete main)
Format settings, Endianness : Big
Codec ID : A_AC3
Duration : 1h 42mn
Bit rate mode : Constant
Bit rate : 192 Kbps
Channel(s) : 2 channels
Channel positions : Front: L R
Sampling rate : 48.0 KHz
Compression mode : Lossy
Stream size : 140 MiB (6%)
Title : Original, AC3 2.0 ~192 kbps
Language : English
Default : No
Forced : No
Text
ID : 4
Format : UTF-8
Codec ID : S_TEXT/UTF8
Codec ID/Info : UTF-8 Plain Text
Language : English
Default : No
Forced : No
Menu
00:00:00.000 : en:Chapter 01
00:08:15.369 : en:Chapter 02
00:16:08.466 : en:Chapter 03
00:23:56.308 : en:Chapter 04
00:32:26.611 : en:Chapter 05
00:39:17.896 : en:Chapter 06
00:47:52.119 : en:Chapter 07
00:55:41.420 : en:Chapter 08
01:04:08.885 : en:Chapter 09
01:13:45.087 : en:Chapter 10
01:23:00.265 : en:Chapter 11
01:32:53.568 : en:Chapter 12
01:42:02.457 : en:Chapter 13

x264

x264 [info]: frame I:1450 Avg QP:15.62 size: 89403
x264 [info]: frame P:33993 Avg QP:18.63 size: 26442
x264 [info]: frame B:111386 Avg QP:20.61 size: 7631
x264 [info]: consecutive B-frames: 2.5% 3.0% 9.4% 28.3% 21.2% 28.6% 4.2% 1.0% 0.6% 0.3% 0.1% 0.1% 0.1% 0.5%
x264 [info]: mb I I16..4: 4.8% 73.4% 21.8%
x264 [info]: mb P I16..4: 1.3% 10.3% 1.9% P16..4: 37.7% 26.8% 14.9% 0.0% 0.0% skip: 7.2%
x264 [info]: mb B I16..4: 0.1% 0.7% 0.2% B16..8: 36.8% 11.5% 3.6% direct: 5.1% skip:42.0% L0:41.2% L1:43.0% BI:15.8%
x264 [info]: 8x8 transform intra:75.3% inter:61.7%
x264 [info]: direct mvs spatial:98.4% temporal:1.6%
x264 [info]: coded y,uvDC,uvAC intra: 84.8% 88.7% 71.6% inter: 22.2% 22.5% 11.8%
x264 [info]: i16 v,h,dc,p: 31% 14% 7% 48%
x264 [info]: i8 v,h,dc,ddl,ddr,vr,hd,vl,hu: 13% 9% 6% 9% 12% 14% 12% 12% 12%
x264 [info]: i4 v,h,dc,ddl,ddr,vr,hd,vl,hu: 13% 8% 3% 9% 15% 15% 13% 12% 12%
x264 [info]: i8c dc,h,v,p: 42% 19% 21% 18%
x264 [info]: Weighted P-Frames: Y:97.1% UV:1.6%
x264 [info]: ref P L0: 48.4% 12.1% 15.7% 5.9% 4.9% 3.4% 3.1% 1.7% 1.7% 1.4% 1.5% 0.2% 0.0%
x264 [info]: ref B L0: 74.4% 11.0% 5.2% 2.7% 2.1% 1.6% 1.4% 0.8% 0.5% 0.3%
x264 [info]: ref B L1: 92.9% 7.1%
x264 [info]: kb/s:2453.93

Скриншоты

с названием

[/URL]
[Profile]  [PM] 
Display posts:    
Reply to topic

Current time is: 26-Sep 09:40

All times are UTC + 2



You cannot post new topics in this forum
You cannot reply to topics in this forum
You cannot edit your posts in this forum
You cannot delete your posts in this forum
You cannot vote in polls in this forum
You cannot attach files in this forum
You cannot download files in this forum