Кровавый апельсин / Blood Orange (Тобиаш / Toby Tobias) [2016, Великобритания, Испания, Триллер, WEB-DLRip] MVO (студия "Paradox") + Original Eng

Reply to topic
 
Author
Message

Satyr ®

Gender: Unknown

Longevity: 11 years

Posts: 15401

Reputation: 55 [+] [-]

Satyr · Post 11-Sep-2016 01:24

[Quote] 

Кровавый апельсин / Blood Orange
Страна: Великобритания, Испания
Жанр: Триллер
Год выпуска: 2016
Продолжительность: 01:23:30
Перевод: Любительский (многоголосый закадровый) (студия "Paradox")
Роли озвучивали: Варвара Чабан, Владимир Рыбальченко, Даниил Эльдаров, Александр Зачиняев
Cубтитры: нет
Оригинальная аудиодорожка: английский
Режиссер: Тоби Тобиаш / Toby Tobias
В ролях: Бен Лэмб, Кейси Барнфилд, Антонио Магро, Игги Поп
Описание: Триллер «Кровавый апельсин» придуман и сыгран в лучших традициях данного жанра. Интригующе, захватывающе, загадочно. Сюжет раскрывается постепенно, раскладывается, как русская матрешка, фигурка за фигуркой, секрет за секретом. Еще одна зацепка зрительского интереса – исполнитель одной из главных ролей, стареющего рок-певца Билла играет звезда эстрады Игги Поп. Он невозмутим и очень скуп на эмоции, но именно его поступки определяют события в этой картине. Мужчина живет с молодой женой Изабелль на уединенной вилле. Ничто не предвещает угрозы этой тишине и спокойствию, когда однажды на вилле появляется гость из прошлого женщины. Сын ее первого мужа, и бывший любовник. Это визит далеко не дружественный, так как Лукасу стало известно, что завещание его отца, по которому наследство перешло молодой жене, оказалось фальшивым. И теперь он намерен его оспорить в суде, а перед этим провести расследование, которое бы разоблачило мошенницу Изабель. Есть в этой камерной истории еще один персонаж: молодой и красивый, но глупый и наивный садовник Дэвид. Именно его выбрала красавица на роль очередного любовника, но юноша решил приступить к делу по своему усмотрению, чем вызвал протест женщины, и нарвался на пулю хозяина. С этой минуты события принимают неожиданный поворот, особенно для Лукаса. Уверяю вас, что такое вряд ли могли предположить и зрители.
Сэмпл: http://multi-up.com/1104924
Качество видео: WEB-DLRip (рип с WEB-DL 1080p)
Формат видео: AVI
Видео: XviD 73, 720x304, (2,35:1), 24,000 fps, 2061 Кбит/с, 8 бит
Аудио: Русский (AC-3, 2 ch (Front: L R), 48,0 KHz, 192 Kbps)
Аудио 2: Англйский (AC-3, 2 ch (Front: L R), 48,0 KHz, 224 Kbps)

MediaInfo

Общее
Полное имя : F:\Видеофильмы\В и д е о\Кровавый апельсин (Триллер 2016г).avi
Формат : AVI
Формат/Информация : Audio Video Interleave
Размер файла : 1,45 Гбайт
Продолжительность : 1 ч. 23 м.
Общий поток : 2491 Кбит/сек
Программа кодирования : VirtualDubMod 1.5.10.3 | www.virtualdub-fr.org || (build 2550/release)
Библиотека кодирования : VirtualDubMod build 2550/release
Видео
Идентификатор : 0
Формат : MPEG-4 Visual
Профиль формата : Advanced Simple@L5
Параметр BVOP формата : 1
Параметр QPel формата : Нет
Параметр GMC формата : Без точки перехода
Параметр матрицы формата : Выборочная
Идентификатор кодека : XVID
Идентификатор кодека/Подсказка : XviD
Продолжительность : 1 ч. 23 м.
Битрейт : 2061 Кбит/сек
Ширина : 720 пикселей
Высота : 304 пикселя
Соотношение сторон : 2,35:1
Частота кадров : 24,000 кадра/сек
Цветовое пространство : YUV
Субдискретизация насыщенности : 4:2:0
Битовая глубина : 8 бит
Тип развёртки : Прогрессивная
Метод сжатия : С потерями
Бит/(Пиксели*Кадры) : 0.392
Размер потока : 1,20 Гбайт (83%)
Библиотека кодирования : XviD 73
Аудио #1
Идентификатор : 1
Формат : AC-3
Формат/Информация : Audio Coding 3
Расширение режима : CM (complete main)
Параметр Endianness формата : Big
Идентификатор кодека : 2000
Продолжительность : 1 ч. 23 м.
Вид битрейта : Постоянный
Битрейт : 192 Кбит/сек
Каналы : 2 канала
Расположение каналов : Front: L R
Частота : 48,0 КГц
Частота кадров : 31,250 кадров/сек (1536 spf)
Метод сжатия : С потерями
Размер потока : 115 Мбайт (8%)
Выравнивание : Разделение по промежуткам
Продолжительность промежутка : 42 мс. (1,00 видеокадр)
Время предзагрузки промежутка : 500 мс.
Аудио #2
Идентификатор : 2
Формат : AC-3
Формат/Информация : Audio Coding 3
Расширение режима : CM (complete main)
Параметр Endianness формата : Big
Идентификатор кодека : 2000
Продолжительность : 1 ч. 23 м.
Вид битрейта : Постоянный
Битрейт : 224 Кбит/сек
Каналы : 2 канала
Расположение каналов : Front: L R
Частота : 48,0 КГц
Частота кадров : 31,250 кадров/сек (1536 spf)
Метод сжатия : С потерями
Размер потока : 134 Мбайт (9%)
Выравнивание : Разделение по промежуткам
Продолжительность промежутка : 42 мс. (1,00 видеокадр)
Время предзагрузки промежутка : 500 мс.

Скриншот c названием фильма

Скриншоты

[Profile]  [PM] 
Display posts:    
Reply to topic

Current time is: 22-Sep 15:26

All times are UTC + 2



You cannot post new topics in this forum
You cannot reply to topics in this forum
You cannot edit your posts in this forum
You cannot delete your posts in this forum
You cannot vote in polls in this forum
You cannot attach files in this forum
You cannot download files in this forum