Специальный полуночный выпуск / Midnight Special (Джефф Николс / Jeff Nichols) [2016, США, фантастика, триллер, драма, приключения, HDRip] MVO (Paradox & Omskbird records)

Reply to topic
 
Author
Message

Satyr ®

Gender: Unknown

Longevity: 11 years

Posts: 15401

Reputation: 55 [+] [-]

Satyr · Post 11-Sep-2016 01:24

[Quote] 

Специальный полуночный выпуск / Midnight Special
Страна: США
Жанр: фантастика, триллер, драма, приключения
Год выпуска: 2016
Продолжительность: 01:51:55
Перевод: Любительский (многоголосый закадровый) (Paradox & Omskbird records)
Cубтитры: нет
Режиссер: Джефф Николс / Jeff Nichols
В ролях: Майкл Шеннон, Джоэл Эдгертон, Кирстен Данст, Джейден Либерер, Адам Драйвер, Билл Кэмп, Скотт Хэйз, Сэм Шепард
Описание: Когда Альтон родился, никто не подозревал, что этот долгожданный ребенок будет обладать сверхъестественными способностями. Однако по мере роста сына родители начинают замечать, что он не такой, как другие дети. С ним происходят странные вещи, а его возможности поражают воображение. Однако, не умея их контролировать, мальчик очень быстро привлекает к себе внимание как военных подразделений правительства и ФБР, так и экстремистских организаций. Не желая, чтобы сына отправляли на смертельно опасные задания и использовали его способности для грязных целей, отец принимает решение пуститься с сыном в бега. Их путешествие сопровождается погонями со стрельбой, оно будет полно трудностей и смертельных опасностей. Сможет ли Рой уберечь Альтона от рук злодеев из правительства и террористических организаций, спасти его и самого себя и научить сына контролировать свою силу?
Сэмпл: http://multi-up.com/1104917
Качество видео: HDRip
Формат видео: AVI
Видео: XviD 1.2.1, 720x304, (2,35:1), 23,976 fps, 1291 Кбит/с, 8 бит
Аудио: Русский (AC-3, 6 ch (Front: L C R, Side: L R, LFE), 48,0 KHz, 448 Kbps)

MediaInfo

Общее
Полное имя : F:\Видеофильмы\В и д е о\Специальный полуночный выпуск (триллер, драма, приключения 2016г).avi
Формат : AVI
Формат/Информация : Audio Video Interleave
Размер файла : 1,37 Гбайт
Продолжительность : 1 ч. 51 м.
Общий поток : 1748 Кбит/сек
Название фильма : Cpec.p0LuH04Hyj.BypuCkl.2016.P.HDRip.14OOMB
Программа кодирования : VirtualDubMod 1.5.10.2 (build 2540/release)
Формат оригинала/Имя : Movie
Видео
Идентификатор : 0
Формат : MPEG-4 Visual
Профиль формата : Advanced Simple@L5
Параметр BVOP формата : 2
Параметр QPel формата : Нет
Параметр GMC формата : Без точки перехода
Параметр матрицы формата : Выборочная
Идентификатор кодека : XVID
Идентификатор кодека/Подсказка : XviD
Продолжительность : 1 ч. 51 м.
Битрейт : 1291 Кбит/сек
Ширина : 720 пикселей
Высота : 304 пикселя
Соотношение сторон : 2,35:1
Частота кадров : 23,976 (24000/1001) кадра/сек
Цветовое пространство : YUV
Субдискретизация насыщенности : 4:2:0
Битовая глубина : 8 бит
Тип развёртки : Прогрессивная
Метод сжатия : С потерями
Бит/(Пиксели*Кадры) : 0.246
Размер потока : 1,01 Гбайт (74%)
Библиотека кодирования : XviD 1.2.1 (UTC 2008-12-04)
Аудио
Идентификатор : 1
Формат : AC-3
Формат/Информация : Audio Coding 3
Расширение режима : CM (complete main)
Параметр Endianness формата : Big
Идентификатор кодека : 2000
Продолжительность : 1 ч. 51 м.
Вид битрейта : Постоянный
Битрейт : 448 Кбит/сек
Каналы : 6 каналов
Расположение каналов : Front: L C R, Side: L R, LFE
Частота : 48,0 КГц
Частота кадров : 31,250 кадров/сек (1536 spf)
Метод сжатия : С потерями
Размер потока : 359 Мбайт (26%)
Выравнивание : Разделение по промежуткам
Продолжительность промежутка : 42 мс. (1,00 видеокадр)
Время предзагрузки промежутка : 500 мс.

Скриншот c названием фильма

Скриншоты

[Profile]  [PM] 
Display posts:    
Reply to topic

Current time is: 22-Jan 14:10

All times are UTC + 2



You cannot post new topics in this forum
You cannot reply to topics in this forum
You cannot edit your posts in this forum
You cannot delete your posts in this forum
You cannot vote in polls in this forum
You cannot attach files in this forum
You cannot download files in this forum