Торденшельд и Колд / Tordenskjold & Kold (Генрик Рубен Генц / Henrik Ruben Genz) [2016, Дания, драма, комедия, WEB-DLRip] VO (datynet)

Reply to topic
 
Author
Message

Satyr ®

Gender: Unknown

Longevity: 11 years

Posts: 15401

Reputation: 55 [+] [-]

Satyr · Post 11-Sep-2016 01:24

[Quote] 

Торденшельд и Колд / Tordenskjold & Kold- Страна: Дания
Жанр: драма, комедия
Год выпуска: 2016
Продолжительность: 01:33:44
Перевод: Любительский (одноголосый закадровый) datynetCубтитры: нет
Оригинальная аудиодорожка: нет-Режиссер:
Генрик Рубен Генц / Henrik Ruben Genz-В ролях:
Якоб Офтебро, Мартин Бух, Давид Денсик, Кеннет М. Кристенсен, Маркус Гертке, Бьёрн Чьелльман, Юэль Спира-Описание: Дания, 1720 год. Заканчивается Великая Северная война. Знаменитый датско-норвежский флотоводец Петер Вессель Торденшельд сходит на берег и остаётся не у дел. Он ведёт разгульный образ жизни, берёт от жизни всё. Однажды под влиянием своего камердинера Кольда он решает всё-таки остепениться и завести семью. Но многочисленные враги, которые остались у Торденшельда даже среди соотечественников, не оставляют его в покое.-КиноПоиск | IMDB | Сэмпл-Качество видео: WEB-DLRip
Формат видео: AVI
Видео: 720x288 (2.50:1), 25 fps, XviD build 67 ~1822 kbps avg, 0.35 bit/pixel
Аудио: 48 kHz, MPEG Layer 3, 2 ch, ~192.00 kbps avg- -

MediaInfo

Код:
General
Complete name : D:\Фильмы\Tordenskjold_og_Kold.avi
Format : AVI
Format/Info : Audio Video Interleave
File size : 1.33 GiB
Duration : 1h 33mn
Overall bit rate : 2 024 Kbps
Writing library : VirtualDub build 35576/release
Video
ID : 0
Format : MPEG-4 Visual
Format profile : Advanced Simple@L5
Format settings, BVOP : 2
Format settings, QPel : No
Format settings, GMC : No warppoints
Format settings, Matrix : Default (H.263)
Codec ID : XVID
Codec ID/Hint : XviD
Duration : 1h 33mn
Bit rate : 1 822 Kbps
Width : 720 pixels
Height : 288 pixels
Display aspect ratio : 2.500
Frame rate : 25.000 fps
Color space : YUV
Chroma subsampling : 4:2:0
Bit depth : 8 bits
Scan type : Progressive
Compression mode : Lossy
Bits/(Pixel*Frame) : 0.352
Stream size : 1.19 GiB (90%)
Writing library : XviD 67
Audio
ID : 1
Format : MPEG Audio
Format version : Version 1
Format profile : Layer 3
Codec ID : 55
Codec ID/Hint : MP3
Duration : 1h 33mn
Bit rate mode : Constant
Bit rate : 192 Kbps
Channel(s) : 2 channels
Sampling rate : 48.0 KHz
Compression mode : Lossy
Stream size : 129 MiB (9%)
Alignment : Split accross interleaves
Interleave, duration : 40 ms (1.00 video frame)
Interleave, preload duration : 500 ms

Скриншот c названием фильма

Скриншоты


[Profile]  [PM] 
Display posts:    
Reply to topic

Current time is: 29-Sep 18:56

All times are UTC + 2



You cannot post new topics in this forum
You cannot reply to topics in this forum
You cannot edit your posts in this forum
You cannot delete your posts in this forum
You cannot vote in polls in this forum
You cannot attach files in this forum
You cannot download files in this forum