Братья из Гримсби / Grimsby (Луи Летерье / Louis Leterrier) [2016, Великобритания, Австралия, Боевик, комедия, HDRip] Dub

Reply to topic
 
Author
Message

Satyr ®

Gender: Unknown

Longevity: 11 years

Posts: 15401

Reputation: 55 [+] [-]

Satyr · Post 11-Sep-2016 01:25

[Quote] 

Братья из Гримсби / Grimsby
Страна: Великобритания, Австралия
Жанр: Боевик, комедия
Год выпуска: 2016
Продолжительность: 01:23:11
Перевод: Профессиональный (полное дублирование)
Cубтитры: нет
Режиссер: Луи Летерье / Louis Leterrier
В ролях: Саша Барон Коэн, Марк Стронг, Ребел Уилсон, Пенелопа Крус, Айла Фишер, Габури Сидибе, Аннабелль Уоллис, Иэн МакШейн, Дэвид Хэрвуд, Рикки Томлинсон
Описание: У образцового агента МИ-6 Себастьяна Гримсби есть непутевый брат, из-за которого тот неожиданно проваливает важную секретную операцию. Неадекватный неудачник по имени Нобби просто сваливается шпиону на голову. Он является городским футбольным хулиганом. Один из самых опасных убийц, Себастьян, всегда был отчужденным и держался в стороне от взбалмошного родственника. После того как братья в детстве были разделены и воспитаны в разных приемных семьях, их пути разошлись. Нобби провел более двадцати лет в поисках брата. И, когда, наконец, узнает о его местонахождении, пытается воссоединиться с братом, не подозревая, что тот работает на правительство и своими действиями он сорвет миссию, из-за которой над всем миром нависнет угроза. В процессе Себастьяну приходиться объединить усилия с вновь приобретенным родственником, крупнейшим идиотом, чтобы спасти планеты от нависшей опасности.
Рейтинг : - КиноПоиск 7,08 / IMDb 6,4
Сэмпл: http://multi-up.com/1104387
Качество видео: HDRip (Исходник BDRip 720p)
Формат видео: AVI
Видео: XviD 1.2.1, 720x304, (2,35:1), 23,976 fps, 1039 Кбит/с, 8 бит
Аудио: Русский (MP3, 2 ch, 48,0 KHz, 128 Kbps)

MediaInfo

Общее
Полное имя : F:\Видеофильмы\В и д е о\Братья из Гримсби (боевик, комедя 2016г).avi
Формат : AVI
Формат/Информация : Audio Video Interleave
Размер файла : 700 Мбайт
Продолжительность : 1 ч. 23 м.
Общий поток : 1177 Кбит/сек
Программа кодирования : VirtualDubMod 1.5.10.2 (build 2540/release)
Библиотека кодирования : VirtualDubMod build 2540/release
Видео
Идентификатор : 0
Формат : MPEG-4 Visual
Профиль формата : Advanced Simple@L5
Параметр BVOP формата : 2
Параметр QPel формата : Нет
Параметр GMC формата : Без точки перехода
Параметр матрицы формата : Выборочная
Идентификатор кодека : XVID
Идентификатор кодека/Подсказка : XviD
Продолжительность : 1 ч. 23 м.
Битрейт : 1039 Кбит/сек
Ширина : 720 пикселей
Высота : 304 пикселя
Соотношение сторон : 2,35:1
Частота кадров : 23,976 (23976/1000) кадра/сек
Цветовое пространство : YUV
Субдискретизация насыщенности : 4:2:0
Битовая глубина : 8 бит
Тип развёртки : Прогрессивная
Метод сжатия : С потерями
Бит/(Пиксели*Кадры) : 0.198
Размер потока : 619 Мбайт (88%)
Библиотека кодирования : XviD 1.2.1 (UTC 2008-12-04)
Аудио
Идентификатор : 1
Формат : MPEG Audio
Версия формата : Version 1
Профиль формата : Layer 3
Идентификатор кодека : 55
Идентификатор кодека/Подсказка : MP3
Продолжительность : 1 ч. 23 м.
Вид битрейта : Постоянный
Битрейт : 128 Кбит/сек
Каналы : 2 канала
Частота : 48,0 КГц
Метод сжатия : С потерями
Размер потока : 76,2 Мбайт (11%)
Выравнивание : Соединение по промежуткам
Продолжительность промежутка : 42 мс. (1,00 видеокадр)
Время предзагрузки промежутка : 504 мс.
Библиотека кодирования : LAME3.99r
Настройки программы : -m s -V 4 -q 2 -lowpass 17 -b 128

Скриншот c названием фильма

Скриншоты

[Profile]  [PM] 
Display posts:    
Reply to topic

Current time is: 22-Sep 16:46

All times are UTC + 2



You cannot post new topics in this forum
You cannot reply to topics in this forum
You cannot edit your posts in this forum
You cannot delete your posts in this forum
You cannot vote in polls in this forum
You cannot attach files in this forum
You cannot download files in this forum