13 часов: Тайные солдаты Бенгази / 13 Hours: The Secret Soldiers of Benghazi (Майкл Бэй / Michael Bay) [2016, США, Боевик, триллер, драма, военный, BDRip-AVC] Dub + Original (Eng) + Subs (Rus, Eng)

Reply to topic
 
Author
Message

Satyr ®

Gender: Unknown

Longevity: 11 years

Posts: 15401

Reputation: 55 [+] [-]

Satyr · Post 11-Sep-2016 01:25

[Quote] 

13 часов: Тайные солдаты Бенгази / 13 Hours: The Secret Soldiers of Benghazi- Год выхода: 2016
Выпущено: США / Paramount Pictures, 3 Arts Entertainment
Жанр: боевик, триллер, драма, военный
Продолжительность: 02:24:29
Перевод: Профессиональный (полное дублирование) BD CEE |Лицензия|
Субтитры: Русские (форсированные + полные), Английские (полные, SDH) (.srt*)
Оригинальная аудиодорожка: Английская
Навигация по главам: Есть (22 главы)-Режиссер:
Майкл Бэй / Michael Bay-В ролях:
Джон Красински, Джеймс Бэдж Дэйл, Пабло Шрайбер, Дэвид Денман, Доминик Фумуса, Макс Мартини, Алексия Бальер, Дэвид Костабайл, Пейман Моаади, Мэтт Летчер, Тоби Стивенс, Деметриус Гросс, Дэвид Джинтоли, Майк Мориарти, Дэвид Фурр, Кевин Кент, Фредди Строма-О фильме:
2012 год. Бенгази, Ливия. Группа террористов решает «отпраздновать» события 11 сентября нападением на американское посольство. Шестерке бойцов из элитного спецотряда приказано вмешаться только в крайнем случае. Но когда под угрозой десятки жизней, долг и совесть берут верх над субординацией. И мужественные солдаты без колебаний вступают в бой с яростной группировкой боевиков. Бой, который для всех шестерых, скорее всего, станет последним.-Релиз групп | | IMDB | КиноПоиск | Сэмпл |-Качество: BDRip-AVC [13 Hours: The Secret Soldiers of Benghazi 2016 1080p Blu-ray AVC TrueHD Atmos 7.1]
Формат: MKV
Видео: 864x360 (2.40:1), 23.976 fps, x264 ~1300 kbps avg, 0.174 bit/pixel
Аудио #1: 48 KHz / 24 KHz, AAC HE-AAC / LC, 2/0 (L,R) ch, ~72 kbps (RUS)
Аудио #2: 48 KHz / 24 KHz, AAC HE-AAC / LC, 2/0 (L,R) ch, ~72 kbps (ENG)-

Скриншоты

-

MediaInfo

General
Complete name                            : D:\13_Chasov_Tainye_soldaty_Bengazi_2016_BDRip-AVC_by_Dalemake.mkv
Format                                   : Matroska
Format version                           : Version 4 / Version 2
File size                                : 1.46 GiB
Duration                                 : 2h 24mn
Overall bit rate                         : 1 445 Kbps
Encoded date                             : UTC 2016-06-03 20:14:25
Writing application                      : mkvmerge v7.8.0 ('River Man') 32bit built on Apr  3 2015 12:11:22
Writing library                          : libebml v1.3.1 + libmatroska v1.4.2
Video
ID                                       : 1
Format                                   : AVC
Format/Info                              : Advanced Video Codec
Format profile                           : High@L4.1
Format settings, CABAC                   : Yes
Format settings, ReFrames                : 8 frames
Codec ID                                 : V_MPEG4/ISO/AVC
Duration                                 : 2h 24mn
Bit rate                                 : 1 300 Kbps
Width                                    : 864 pixels
Height                                   : 360 pixels
Display aspect ratio                     : 2.40:1
Frame rate mode                          : Constant
Frame rate                               : 23.976 (24000/1001) fps
Color space                              : YUV
Chroma subsampling                       : 4:2:0
Bit depth                                : 8 bits
Scan type                                : Progressive
Bits/(Pixel*Frame)                       : 0.174
Stream size                              : 1.31 GiB (90%)
Title                                    : [13 Hours: The Secret Soldiers of Benghazi_2016_All Films Rutracker.org_by Dalemake]
Writing library                          : x264 core 146 r2538 121396c
Encoding settings                        : cabac=1 / ref=8 / deblock=1:-3:-2 / analyse=0x3:0x133 / me=umh / subme=11 / psy=1 / psy_rd=1.00:0.00 / mixed_ref=1 / me_range=32 / chroma_me=1 / trellis=2 / 8x8dct=1 / cqm=0 / deadzone=21,11 / fast_pskip=1 / chroma_qp_offset=-4 / threads=6 / lookahead_threads=1 / sliced_threads=0 / nr=0 / decimate=0 / interlaced=0 / bluray_compat=0 / constrained_intra=0 / bframes=15 / b_pyramid=2 / b_adapt=2 / b_bias=0 / direct=3 / weightb=1 / open_gop=0 / weightp=2 / keyint=250 / keyint_min=23 / scenecut=40 / intra_refresh=0 / rc_lookahead=60 / rc=2pass / mbtree=0 / bitrate=1300 / ratetol=1.0 / qcomp=0.60 / qpmin=0 / qpmax=69 / qpstep=4 / cplxblur=20.0 / qblur=0.5 / vbv_maxrate=50000 / vbv_bufsize=62500 / nal_hrd=none / filler=0 / ip_ratio=1.35 / pb_ratio=1.30 / aq=1:1.00
Default                                  : Yes
Forced                                   : No
Audio #1
ID                                       : 2
Format                                   : AAC
Format/Info                              : Advanced Audio Codec
Format profile                           : HE-AAC / LC
Codec ID                                 : A_AAC
Duration                                 : 2h 24mn
Bit rate                                 : 72.0 Kbps
Channel(s)                               : 2 channels
Channel positions                        : Front: L R
Sampling rate                            : 48.0 KHz / 24.0 KHz
Frame rate                               : 23.438 fps (1024 spf)
Compression mode                         : Lossy
Delay relative to video                  : 31ms
Stream size                              : 74.4 MiB (5%)
Title                                    : Dub _ BD CEE
Language                                 : Russian
Default                                  : Yes
Forced                                   : No
Audio #2
ID                                       : 3
Format                                   : AAC
Format/Info                              : Advanced Audio Codec
Format profile                           : HE-AAC / LC
Codec ID                                 : A_AAC
Duration                                 : 2h 24mn
Bit rate                                 : 72.0 Kbps
Channel(s)                               : 2 channels
Channel positions                        : Front: L R
Sampling rate                            : 48.0 KHz / 24.0 KHz
Frame rate                               : 23.438 fps (1024 spf)
Compression mode                         : Lossy
Delay relative to video                  : 31ms
Stream size                              : 74.4 MiB (5%)
Title                                    : Original
Language                                 : English
Default                                  : No
Forced                                   : No
Text #1
ID                                       : 4
Format                                   : UTF-8
Codec ID                                 : S_TEXT/UTF8
Codec ID/Info                            : UTF-8 Plain Text
Duration                                 : 2h 19mn
Bit rate                                 : 4 bps
Count of elements                        : 67
Stream size                              : 4.68 KiB (0%)
Title                                    : Forced
Language                                 : Russian
Default                                  : Yes
Forced                                   : No
Text #2
ID                                       : 5
Format                                   : UTF-8
Codec ID                                 : S_TEXT/UTF8
Codec ID/Info                            : UTF-8 Plain Text
Duration                                 : 2h 19mn
Bit rate                                 : 97 bps
Count of elements                        : 1854
Stream size                              : 99.3 KiB (0%)
Title                                    : Full
Language                                 : Russian
Default                                  : No
Forced                                   : No
Text #3
ID                                       : 6
Format                                   : UTF-8
Codec ID                                 : S_TEXT/UTF8
Codec ID/Info                            : UTF-8 Plain Text
Duration                                 : 2h 14mn
Bit rate                                 : 67 bps
Count of elements                        : 2096
Stream size                              : 66.6 KiB (0%)
Title                                    : Full
Language                                 : English
Default                                  : No
Forced                                   : No
Text #4
ID                                       : 7
Format                                   : UTF-8
Codec ID                                 : S_TEXT/UTF8
Codec ID/Info                            : UTF-8 Plain Text
Duration                                 : 2h 15mn
Bit rate                                 : 73 bps
Count of elements                        : 2275
Stream size                              : 72.8 KiB (0%)
Title                                    : Full - SDH
Language                                 : English
Default                                  : No
Forced                                   : No
Menu
00:00:00.000                             : en:00:00:00.000
00:04:47.662                             : en:00:04:47.662
00:09:01.541                             : en:00:09:01.541
00:15:31.556                             : en:00:15:31.556
00:21:12.229                             : en:00:21:12.229
00:26:48.774                             : en:00:26:48.774
00:31:22.756                             : en:00:31:22.756
00:34:20.058                             : en:00:34:20.058
00:39:36.124                             : en:00:39:36.124
00:47:12.872                             : en:00:47:12.872
00:53:59.027                             : en:00:53:59.027
01:02:27.744                             : en:01:02:27.744
01:10:03.324                             : en:01:10:03.324
01:23:02.477                             : en:01:23:02.477
01:27:11.101                             : en:01:27:11.101
01:34:50.685                             : en:01:34:50.685
01:42:36.359                             : en:01:42:36.359
01:48:08.148                             : en:01:48:08.148
01:53:47.279                             : en:01:53:47.279
02:00:22.882                             : en:02:00:22.882
02:07:19.465                             : en:02:07:19.465
02:18:25.422                             : en:02:18:25.422
-
[Profile]  [PM] 
Display posts:    
Reply to topic

Current time is: 25-Sep 00:19

All times are UTC + 2



You cannot post new topics in this forum
You cannot reply to topics in this forum
You cannot edit your posts in this forum
You cannot delete your posts in this forum
You cannot vote in polls in this forum
You cannot attach files in this forum
You cannot download files in this forum