13 часов: Тайные солдаты Бенгази / 13 Hours: The Secret Soldiers of Benghazi (Майкл Бэй / Michael Bay) [2016, США, Боевик, триллер, драма, военный, BDRip-AVC] Dub + Original + Sub (rus, eng)

Reply to topic
 
Author
Message

Satyr ®

Gender: Unknown

Longevity: 11 years

Posts: 15401

Reputation: 55 [+] [-]

Satyr · Post 11-Sep-2016 01:25

[Quote] 

13 часов: Тайные солдаты Бенгази / 13 Hours: The Secret Soldiers of Benghazi«When everything went wrong, six men had the courage to do what was right»- Страна: США
Жанр: боевик, триллер, драма, военный
Год выпуска: 2016
Продолжительность: 02:24:29
Перевод: Профессиональный (полное дублирование) (BD CEE)
Оригинальная аудиодорожка: английский
Cубтитры: русские (форс., полные) английские (полные, SDH)
Навигация по главам: есть
Режиссеры: Майкл Бэй / Michael Bay
В ролях: Джон Красински, Джеймс Бэдж Дэйл, Пабло Шрайбер, Дэвид Денман, Доминик Фумуса, Макс Мартини, Алексия Бальер, Дэвид Костабайл, Пейман Моаади, Мэтт Летчер, Тоби Стивенс, Деметриус Гросс, Дэвид Джинтоли, Майк Мориарти, Дэвид Фурр, Кевин Кент, Фредди Строма
Описание: 2012 год. Бенгази, Ливия. Группа террористов решает «отпраздновать» события 11 сентября нападением на американское посольство. Шестерке бойцов из элитного спецотряда приказано вмешаться только в крайнем случае. Но когда под угрозой десятки жизней, долг и совесть берут верх над субординацией. И мужественные солдаты без колебаний вступают в бой с яростной группировкой боевиков. Бой, который для всех шестерых, скорее всего, станет последним.

Качество видео: BDRip-AVC (исходник - BDRemux|13.Hours.The.Secret.Soldiers.of.Benghazi.2016.1080p.BluRay.REMUX.AVC.DTS-HD.MA.7.1-RARBG)
Формат видео: MKV
Видео: x264, 1152х480 (2.40:1), 23,976 fps, ~3197 kbps, 0.241 bit/pixel
Аудио 1: 48 kHz, AC3 Dolby Digital, 3/2 (L,C,R,l,r) + LFE ch, ~448 kbps [русский]
Аудио 2: 48 kHz, AC3 Dolby Digital, 3/2 (L,C,R,l,r) + LFE ch, ~448 kbps [английский]
Формат субтитров: softsub (SRT)

MediaInfo | x264 log

Format : Matroska
Format version : Version 4 / Version 2
File size : 4.21 GiB
Duration : 2h 24mn
Overall bit rate : 4 176 Kbps
Movie name : 13 часов: Тайные солдаты Бенгази / 13 Hours: The Secret Soldiers of Benghazi (2016) :: AFM::
Encoded date : UTC 2016-06-03 19:50:26
Writing application : mkvmerge v8.3.0 ('Over the Horizon') 32bit
Writing library : libebml v1.3.1 + libmatroska v1.4.2
Video
ID : 1
Format : AVC
Format/Info : Advanced Video Codec
Format profile : High@L4.1
Format settings, CABAC : Yes
Format settings, ReFrames : 12 frames
Codec ID : V_MPEG4/ISO/AVC
Duration : 2h 24mn
Bit rate : 3 197 Kbps
Width : 1 152 pixels
Height : 480 pixels
Display aspect ratio : 2.40:1
Frame rate mode : Constant
Frame rate : 23.976 fps
Color space : YUV
Chroma subsampling : 4:2:0
Bit depth : 8 bits
Scan type : Progressive
Bits/(Pixel*Frame) : 0.241
Stream size : 3.23 GiB (77%)
Title : BDRip by AFM [torrentsland.com.ua]
Writing library : x264 core 148 r2665+53 6629127 t_mod_Custom [8-bit@all X86_64]
Encoding settings : cabac=1 / ref=12 / deblock=1:-2:-2 / analyse=0x3:0x113 / me=umh / subme=10 / psy=1 / fade_compensate=0.00 / psy_rd=1.00:0.00 / mixed_ref=1 / me_range=32 / chroma_me=1 / trellis=2 / 8x8dct=1 / cqm=0 / deadzone=21,11 / fast_pskip=0 / chroma_qp_offset=-2 / threads=6 / lookahead_threads=1 / sliced_threads=0 / nr=0 / decimate=1 / interlaced=0 / bluray_compat=0 / constrained_intra=0 / fgo=0 / bframes=14 / b_pyramid=2 / b_adapt=2 / b_bias=0 / direct=1 / weightb=1 / open_gop=0 / weightp=2 / keyint=250 / keyint_min=23 / scenecut=40 / intra_refresh=0 / rc_lookahead=40 / rc=crf / mbtree=0 / crf=17.8000 / qcomp=0.65 / qpmin=0:0:0 / qpmax=69:69:69 / qpstep=4 / vbv_maxrate=50000 / vbv_bufsize=62500 / crf_max=0.0 / nal_hrd=none / filler=0 / ip_ratio=1.35 / pb_ratio=1.30 / aq=1:0.80 / aq-sensitivity=10.00 / aq-factor=1.00:1.00:1.00 / aq2=0 / aq3=0 / zones=199050,207860,q=30
Language : English
Default : Yes
Forced : No
Audio #1
ID : 2
Format : AC-3
Format/Info : Audio Coding 3
Mode extension : CM (complete main)
Format settings, Endianness : Big
Codec ID : A_AC3
Duration : 2h 24mn
Bit rate mode : Constant
Bit rate : 448 Kbps
Channel(s) : 6 channels
Channel positions : Front: L C R, Side: L R, LFE
Sampling rate : 48.0 KHz
Compression mode : Lossy
Stream size : 463 MiB (11%)
Title : Dub, AC3 5.1 ~448 kbps
Language : Russian
Default : Yes
Forced : No
Audio #2
ID : 3
Format : AC-3
Format/Info : Audio Coding 3
Mode extension : CM (complete main)
Format settings, Endianness : Big
Codec ID : A_AC3
Duration : 2h 24mn
Bit rate mode : Constant
Bit rate : 448 Kbps
Channel(s) : 6 channels
Channel positions : Front: L C R, Side: L R, LFE
Sampling rate : 48.0 KHz
Compression mode : Lossy
Stream size : 463 MiB (11%)
Title : Original, AC3 5.1 ~448 kbps
Language : English
Default : No
Forced : No
Text #1
ID : 4
Format : UTF-8
Codec ID : S_TEXT/UTF8
Codec ID/Info : UTF-8 Plain Text
Title : forced
Language : Russian
Default : Yes
Forced : No
Text #2
ID : 5
Format : UTF-8
Codec ID : S_TEXT/UTF8
Codec ID/Info : UTF-8 Plain Text
Language : Russian
Default : No
Forced : No
Text #3
ID : 6
Format : UTF-8
Codec ID : S_TEXT/UTF8
Codec ID/Info : UTF-8 Plain Text
Language : English
Default : No
Forced : No
Text #4
ID : 7
Format : UTF-8
Codec ID : S_TEXT/UTF8
Codec ID/Info : UTF-8 Plain Text
Title : SDH
Language : English
Default : No
Forced : No
Menu
00:00:00.000 : en:Chapter 01
00:04:47.662 : en:Chapter 02
00:09:01.541 : en:Chapter 03
00:15:31.556 : en:Chapter 04
00:21:12.229 : en:Chapter 05
00:26:48.774 : en:Chapter 06
00:31:22.756 : en:Chapter 07
00:34:20.058 : en:Chapter 08
00:39:36.124 : en:Chapter 09
00:47:12.872 : en:Chapter 10
00:53:59.027 : en:Chapter 11
01:02:27.744 : en:Chapter 12
01:10:03.324 : en:Chapter 13
01:23:02.477 : en:Chapter 14
01:27:11.101 : en:Chapter 15
01:34:50.685 : en:Chapter 16
01:42:36.359 : en:Chapter 17
01:48:08.148 : en:Chapter 18
01:53:47.279 : en:Chapter 19
02:00:22.882 : en:Chapter 20
02:07:19.465 : en:Chapter 21
02:18:25.422 : en:Chapter 22

x264

x264 [info]: frame I:1607 Avg QP:17.54 size: 74269
x264 [info]: frame P:49701 Avg QP:18.62 size: 32294
x264 [info]: frame B:156552 Avg QP:21.29 size: 11675
x264 [info]: consecutive B-frames: 2.7% 3.8% 12.5% 27.6% 18.6% 24.6% 4.3% 2.0% 0.8% 0.4% 0.3% 1.6% 0.3% 0.4% 0.3%
x264 [info]: mb I I16..4: 6.5% 75.5% 18.0%
x264 [info]: mb P I16..4: 2.2% 17.5% 2.7% P16..4: 35.1% 25.7% 12.6% 0.0% 0.0% skip: 4.2%
x264 [info]: mb B I16..4: 0.2% 1.4% 0.3% B16..8: 39.5% 12.8% 3.6% direct: 8.4% skip:33.6% L0:41.7% L1:44.2% BI:14.1%
x264 [info]: 8x8 transform intra:76.9% inter:71.1%
x264 [info]: coded y,uvDC,uvAC intra: 82.9% 91.3% 79.3% inter: 28.1% 37.6% 17.9%
x264 [info]: i16 v,h,dc,p: 26% 14% 7% 53%
x264 [info]: i8 v,h,dc,ddl,ddr,vr,hd,vl,hu: 11% 10% 6% 9% 13% 13% 14% 11% 13%
x264 [info]: i4 v,h,dc,ddl,ddr,vr,hd,vl,hu: 10% 10% 3% 9% 15% 14% 14% 11% 13%
x264 [info]: i8c dc,h,v,p: 45% 19% 15% 22%
x264 [info]: Weighted P-Frames: Y:97.9% UV:4.4%
x264 [info]: ref P L0: 47.4% 12.5% 16.4% 6.1% 4.8% 3.2% 2.8% 1.6% 1.5% 1.2% 1.2% 1.0% 0.3% 0.0%
x264 [info]: ref B L0: 76.2% 10.9% 4.7% 2.5% 1.6% 1.3% 1.0% 0.7% 0.6% 0.4% 0.2%
x264 [info]: ref B L1: 93.5% 6.5%
x264 [info]: kb/s:3277.78

Скриншоты

с названием

~~ Source ~~

~~ Rip ~~
[Profile]  [PM] 
Display posts:    
Reply to topic

Current time is: 19-Sep 10:02

All times are UTC + 2



You cannot post new topics in this forum
You cannot reply to topics in this forum
You cannot edit your posts in this forum
You cannot delete your posts in this forum
You cannot vote in polls in this forum
You cannot attach files in this forum
You cannot download files in this forum