13 часов: Тайные солдаты Бенгази / 13 Hours: The Secret Soldiers of Benghazi (Майкл Бэй / Michael Bay) [2016, США, Боевик, триллер, драма, военный, BDRip] Dub + Sub

Reply to topic
 
Author
Message

Satyr ®

Gender: Unknown

Longevity: 11 years

Posts: 15401

Reputation: 55 [+] [-]

Satyr · Post 11-Sep-2016 01:25

[Quote] 

13 часов: Тайные солдаты Бенгази / 13 Hours: The Secret Soldiers of Benghazi- Год выхода: 2016
Выпущено: США / Paramount Pictures, 3 Arts Entertainment
Жанр: боевик, триллер, драма, военный
Продолжительность: 02:24:29
Перевод: Профессиональный (полное дублирование) BD CEE |Лицензия|
Субтитры: Русские (форсированные) (внешние.srt*)-Режиссер:
Майкл Бэй / Michael Bay-В ролях:
Джон Красински, Джеймс Бэдж Дэйл, Пабло Шрайбер, Дэвид Денман, Доминик Фумуса, Макс Мартини, Алексия Бальер, Дэвид Костабайл, Пейман Моаади, Мэтт Летчер, Тоби Стивенс, Деметриус Гросс, Дэвид Джинтоли, Майк Мориарти, Дэвид Фурр, Кевин Кент, Фредди Строма-О фильме:
2012 год. Бенгази, Ливия. Группа террористов решает «отпраздновать» события 11 сентября нападением на американское посольство. Шестерке бойцов из элитного спецотряда приказано вмешаться только в крайнем случае. Но когда под угрозой десятки жизней, долг и совесть берут верх над субординацией. И мужественные солдаты без колебаний вступают в бой с яростной группировкой боевиков. Бой, который для всех шестерых, скорее всего, станет последним.-Релиз групп | | IMDB | КиноПоиск | Сэмпл |-Качество: BDRip [13 Hours: The Secret Soldiers of Benghazi 2016 1080p Blu-ray AVC TrueHD Atmos 7.1]
Формат: AVI
Видео: 720x304 (2.37:1), 23.976 fps, XviD build 67 ~1246 kbps avg, 0.24 bit/pixel
Аудио: 48 kHz, AC3 Dolby Digital, 2/0 (L,R) ch, ~192 kbps avg-

Скриншоты

-

MediaInfo

General
Complete name                            : D:\13_Chasov_Tainye_soldaty_Bengazi_2016_BDRip_by_Dalemake.avi
Format                                   : AVI
Format/Info                              : Audio Video Interleave
File size                                : 1.46 GiB
Duration                                 : 2h 24mn
Overall bit rate                         : 1 448 Kbps
Writing application                      : VirtualDubMod 1.5.10.3 | www.virtualdub-fr.org || (build 2550/release)
Writing library                          : VirtualDubMod build 2550/release
Video
ID                                       : 0
Format                                   : MPEG-4 Visual
Format profile                           : Advanced Simple@L5
Format settings, BVOP                    : 1
Format settings, QPel                    : No
Format settings, GMC                     : No warppoints
Format settings, Matrix                  : Custom
Codec ID                                 : XVID
Codec ID/Hint                            : XviD
Duration                                 : 2h 24mn
Bit rate                                 : 1 247 Kbps
Width                                    : 720 pixels
Height                                   : 304 pixels
Display aspect ratio                     : 2.35:1
Frame rate                               : 23.976 (23976/1000) fps
Color space                              : YUV
Chroma subsampling                       : 4:2:0
Bit depth                                : 8 bits
Scan type                                : Progressive
Compression mode                         : Lossy
Bits/(Pixel*Frame)                       : 0.238
Stream size                              : 1.26 GiB (86%)
Writing library                          : XviD 67
Audio
ID                                       : 1
Format                                   : AC-3
Format/Info                              : Audio Coding 3
Mode extension                           : CM (complete main)
Format settings, Endianness              : Big
Codec ID                                 : 2000
Duration                                 : 2h 24mn
Bit rate mode                            : Constant
Bit rate                                 : 192 Kbps
Channel(s)                               : 2 channels
Channel positions                        : Front: L R
Sampling rate                            : 48.0 KHz
Frame rate                               : 31.250 fps (1536 spf)
Compression mode                         : Lossy
Stream size                              : 198 MiB (13%)
Alignment                                : Split accross interleaves
Interleave, duration                     : 42 ms (1.00 video frame)
Interleave, preload duration             : 500 ms
-
[Profile]  [PM] 
Display posts:    
Reply to topic

Current time is: 29-Sep 18:08

All times are UTC + 2



You cannot post new topics in this forum
You cannot reply to topics in this forum
You cannot edit your posts in this forum
You cannot delete your posts in this forum
You cannot vote in polls in this forum
You cannot attach files in this forum
You cannot download files in this forum