Братья из Гримсби / Grimsby / The Brothers Grimsby (Луи Летерье / Louis Leterrier) [2016, Великобритания, боевик, комедия, BDRip-AVC] Dub + Original + Sub (rus, eng)

Reply to topic
 
Author
Message

Satyr ®

Gender: Unknown

Longevity: 11 years

Posts: 15401

Reputation: 55 [+] [-]

Satyr · Post 11-Sep-2016 01:25

[Quote] 

Братья из Гримсби / Grimsby / The Brothers Grimsby«One secret agent. One complete idiot»- Страна: Великобритания, Австралия
Жанр: боевик, комедия
Год выпуска: 2016
Продолжительность: 01:23:11
Перевод: Профессиональный (полное дублирование) (iTunes)
Оригинальная аудиодорожка: английский
Cубтитры: русские (форс., полные), английские (полные, SDH)
Навигация по главам: есть
Режиссеры: Луи Летерье / Louis Leterrier
В ролях: Саша Барон Коэн, Марк Стронг, Ребел Уилсон, Пенелопа Крус, Айла Фишер, Скотт Эдкинс, Иэн МакШейн, Габури Сидибе, Аннабелль Уоллис, Дэвид Хэрвуд, Рикки Томлинсон, Джонни Вегас, Сэм Хэзелдайн, Фредди Краудер, Джон-Джон Локвуд, Шон Томас, Клаудия Эдшид, Лекс Шрэпнел
Описание: Сверхсекретная операция, которую выполняет образцовый спецагент, с треском провалена из-за некстати свалившегося на его голову неадекватного брата — оголтелого футбольного фаната и полного беспредельщика. Теперь герою предстоит спасти свою жизнь и вдобавок планету от нависшей над ней угрозы — практически невыполнимая задача в тандеме с вновь приобретенным родственником.

Качество видео: BDRip-AVC (исходник - BDRemux|The.Brothers.Grimsby.2016.1080p.BluRay.REMUX.AVC.DTS-HD.MA.5.1-RARBG)
Формат видео: MKV
Видео: x264, 1056х442 (2.40:1), 23,976 fps, ~2970 kbps, 0.265 bit/pixel
Аудио 1: 48 kHz, AC3 Dolby Digital, 3/2 (L,C,R,l,r) + LFE ch, ~384 kbps [русский]
Аудио 2: 48 kHz, AC3 Dolby Digital, 3/2 (L,C,R,l,r) + LFE ch, ~384 kbps [английский]
Формат субтитров: softsub (SRT)

MediaInfo | x264 log

Format : Matroska
Format version : Version 4 / Version 2
File size : 2.17 GiB
Duration : 1h 23mn
Overall bit rate : 3 737 Kbps
Movie name : Братья из Гримсби / Grimsby (2016) :: AFM ::
Encoded date : UTC 2016-06-02 16:24:42
Writing application : mkvmerge v8.3.0 ('Over the Horizon') 32bit
Writing library : libebml v1.3.1 + libmatroska v1.4.2
Video
ID : 1
Format : AVC
Format/Info : Advanced Video Codec
Format profile : High@L4.1
Format settings, CABAC : Yes
Format settings, ReFrames : 12 frames
Codec ID : V_MPEG4/ISO/AVC
Duration : 1h 23mn
Bit rate : 2 970 Kbps
Width : 1 056 pixels
Height : 442 pixels
Display aspect ratio : 2.40:1
Frame rate mode : Constant
Frame rate : 23.976 fps
Color space : YUV
Chroma subsampling : 4:2:0
Bit depth : 8 bits
Scan type : Progressive
Bits/(Pixel*Frame) : 0.265
Stream size : 1.68 GiB (77%)
Title : BDRip by AFM [torrentsland.com.ua]
Writing library : x264 core 148 r2665+53 6629127 t_mod_Custom [8-bit@all X86_64]
Encoding settings : cabac=1 / ref=12 / deblock=1:-2:-2 / analyse=0x3:0x113 / me=umh / subme=10 / psy=1 / fade_compensate=0.00 / psy_rd=1.00:0.00 / mixed_ref=1 / me_range=32 / chroma_me=1 / trellis=2 / 8x8dct=1 / cqm=0 / deadzone=21,11 / fast_pskip=0 / chroma_qp_offset=-2 / threads=6 / lookahead_threads=1 / sliced_threads=0 / nr=0 / decimate=0 / interlaced=0 / bluray_compat=0 / constrained_intra=0 / fgo=0 / bframes=13 / b_pyramid=2 / b_adapt=2 / b_bias=0 / direct=3 / weightb=1 / open_gop=0 / weightp=2 / keyint=250 / keyint_min=23 / scenecut=40 / intra_refresh=0 / rc_lookahead=40 / rc=2pass / mbtree=0 / bitrate=2970 / ratetol=1.0 / qcomp=0.65 / qpmin=0:0:0 / qpmax=69:69:69 / qpstep=4 / cplxblur=20.0 / qblur=0.5 / vbv_maxrate=50000 / vbv_bufsize=62500 / nal_hrd=none / filler=0 / ip_ratio=1.30 / pb_ratio=1.25 / aq=1:0.80 / aq-sensitivity=10.00 / aq-factor=1.00:1.00:1.00 / aq2=0 / aq3=0 / zones=111318,119032,q=30
Language : English
Default : Yes
Forced : No
Audio #1
ID : 2
Format : AC-3
Format/Info : Audio Coding 3
Mode extension : CM (complete main)
Format settings, Endianness : Big
Codec ID : A_AC3
Duration : 1h 23mn
Bit rate mode : Constant
Bit rate : 384 Kbps
Channel(s) : 6 channels
Channel positions : Front: L C R, Side: L R, LFE
Sampling rate : 48.0 KHz
Compression mode : Lossy
Stream size : 229 MiB (10%)
Title : Dub, AC3 5.1 ~384 kbps
Language : Russian
Default : Yes
Forced : No
Audio #2
ID : 3
Format : AC-3
Format/Info : Audio Coding 3
Mode extension : CM (complete main)
Format settings, Endianness : Big
Codec ID : A_AC3
Duration : 1h 23mn
Bit rate mode : Constant
Bit rate : 384 Kbps
Channel(s) : 6 channels
Channel positions : Front: L C R, Side: L R, LFE
Sampling rate : 48.0 KHz
Compression mode : Lossy
Stream size : 229 MiB (10%)
Title : Original, AC3 5.1 ~384 kbps
Language : English
Default : No
Forced : No
Text #1
ID : 4
Format : UTF-8
Codec ID : S_TEXT/UTF8
Codec ID/Info : UTF-8 Plain Text
Title : forced
Language : Russian
Default : Yes
Forced : No
Text #2
ID : 5
Format : UTF-8
Codec ID : S_TEXT/UTF8
Codec ID/Info : UTF-8 Plain Text
Language : Russian
Default : No
Forced : No
Text #3
ID : 6
Format : UTF-8
Codec ID : S_TEXT/UTF8
Codec ID/Info : UTF-8 Plain Text
Language : English
Default : No
Forced : No
Text #4
ID : 7
Format : UTF-8
Codec ID : S_TEXT/UTF8
Codec ID/Info : UTF-8 Plain Text
Title : SDH
Language : English
Default : No
Forced : No
Menu
00:00:00.000 : en:00:00:00.000
00:06:54.331 : en:00:06:54.331
00:11:00.994 : en:00:11:00.994
00:16:25.735 : en:00:16:25.735
00:21:37.630 : en:00:21:37.630
00:26:43.727 : en:00:26:43.727
00:31:46.863 : en:00:31:46.863
00:36:48.706 : en:00:36:48.706
00:41:57.056 : en:00:41:57.056
00:46:54.979 : en:00:46:54.979
00:52:19.595 : en:00:52:19.595
00:57:28.487 : en:00:57:28.487
01:01:27.851 : en:01:01:27.851
01:06:16.139 : en:01:06:16.139
01:11:52.099 : en:01:11:52.099
01:16:25.873 : en:01:16:25.873

x264

x264 [info]: frame I:1266 Avg QP:15.66 size: 75645
x264 [info]: frame P:31541 Avg QP:17.78 size: 28132
x264 [info]: frame B:86867 Avg QP:19.46 size: 9995
x264 [info]: consecutive B-frames: 5.3% 5.5% 10.7% 31.6% 15.3% 21.6% 4.1% 3.3% 0.9% 0.5% 0.2% 0.7% 0.1% 0.2%
x264 [info]: mb I I16..4: 3.2% 74.0% 22.8%
x264 [info]: mb P I16..4: 1.5% 17.0% 3.2% P16..4: 30.2% 26.8% 14.4% 0.0% 0.0% skip: 6.9%
x264 [info]: mb B I16..4: 0.1% 1.3% 0.4% B16..8: 36.5% 16.8% 5.6% direct: 6.6% skip:32.6% L0:41.2% L1:43.1% BI:15.8%
x264 [info]: 8x8 transform intra:76.7% inter:58.8%
x264 [info]: direct mvs spatial:96.2% temporal:3.8%
x264 [info]: coded y,uvDC,uvAC intra: 88.7% 84.4% 64.3% inter: 32.1% 24.2% 12.3%
x264 [info]: i16 v,h,dc,p: 25% 18% 6% 51%
x264 [info]: i8 v,h,dc,ddl,ddr,vr,hd,vl,hu: 11% 11% 7% 9% 12% 12% 13% 11% 13%
x264 [info]: i4 v,h,dc,ddl,ddr,vr,hd,vl,hu: 12% 10% 3% 9% 15% 14% 14% 11% 13%
x264 [info]: i8c dc,h,v,p: 43% 24% 18% 16%
x264 [info]: Weighted P-Frames: Y:97.1% UV:1.6%
x264 [info]: ref P L0: 49.9% 12.8% 15.4% 5.7% 4.5% 3.0% 2.6% 1.5% 1.3% 1.1% 1.0% 0.9% 0.2% 0.0%
x264 [info]: ref B L0: 75.2% 11.2% 5.0% 2.6% 1.7% 1.4% 1.1% 0.7% 0.6% 0.4% 0.2%
x264 [info]: ref B L1: 93.4% 6.6%
x264 [info]: kb/s:2967.12

Скриншоты

с названием

[Profile]  [PM] 
Display posts:    
Reply to topic

Current time is: 22-Sep 17:08

All times are UTC + 2



You cannot post new topics in this forum
You cannot reply to topics in this forum
You cannot edit your posts in this forum
You cannot delete your posts in this forum
You cannot vote in polls in this forum
You cannot attach files in this forum
You cannot download files in this forum