Да здравствует Цезарь! / Hail, Caesar! (Итан Коэн / Ethan Coen, Джоэл Коэн / Joel Coen) [2016, Великобритания, комедия, детектив, BDRip-AVC] Dub + Original + Sub (rus, eng)

Reply to topic
 
Author
Message

Satyr ®

Gender: Unknown

Longevity: 11 years

Posts: 15401

Reputation: 55 [+] [-]

Satyr · Post 11-Sep-2016 01:25

[Quote] 

Да здравствует Цезарь! / Hail, Caesar!«Lights. Camera. Abduction»- Страна: Великобритания, США, Япония
Жанр: комедия, детектив
Год выпуска: 2016
Продолжительность: 01:46:06
Перевод: Профессиональный (полное дублирование) (iTunes)
Оригинальная аудиодорожка: английский
Cубтитры: русские (форс., полные), английские (полные, SDH)
Навигация по главам: есть
Режиссеры: Итан Коэн / Ethan Coen, Джоэл Коэн / Joel Coen
В ролях: Джош Бролин, Джордж Клуни, Рэйф Файнс, Скарлетт Йоханссон, Ченнинг Татум, Джона Хилл, Дольф Лундгрен, Кристофер Ламберт, Тильда Суинтон, Фрэнсис МакДорманд, Майкл Гэмбон, Вероника Осорио, Олден Эренрайк
Описание: Добро пожаловать в Голливуд — империю блеска, роскоши и порока. Здесь обитают кумиры миллионов. Что ни день — пиршество для светских хроникеров. И вот однажды исчезает исполнитель главной роли в фильме «Да здравствует Цезарь!». Ни жена, ни многочисленные любовницы не знают, где он. И теперь продюсера студии ждет веселый денек, ведь он должен найти звезду раньше репортеров…

Качество видео: BDRip-AVC (исходник - BDRemux|HAIL_CAESAR_REMUX_HDCLUB)
Формат видео: MKV
Видео: x264, 1056х572 (1,85:1), 23,976 fps, ~2170 kbps, 0.150 bit/pixel
Аудио 1: 48 kHz, AC3 Dolby Digital, 3/2 (L,C,R,l,r) + LFE ch, ~384 kbps [русский]
Аудио 2: 48 kHz, AC3 Dolby Digital, 3/2 (L,C,R,l,r) + LFE ch, ~384 kbps [английский]
Формат субтитров: softsub (SRT)

MediaInfo | x264 log

Format : Matroska
Format version : Version 4 / Version 2
File size : 2.18 GiB
Duration : 1h 46mn
Overall bit rate : 2 940 Kbps
Movie name : Да здравствует Цезарь! / Hail, Caesar! (2016) :: AFM ::
Encoded date : UTC 2016-05-28 15:08:58
Writing application : mkvmerge v8.3.0 ('Over the Horizon') 32bit
Writing library : libebml v1.3.1 + libmatroska v1.4.2
Video
ID : 1
Format : AVC
Format/Info : Advanced Video Codec
Format profile : High@L4.1
Format settings, CABAC : Yes
Format settings, ReFrames : 12 frames
Codec ID : V_MPEG4/ISO/AVC
Duration : 1h 46mn
Bit rate : 2 170 Kbps
Width : 1 056 pixels
Height : 572 pixels
Display aspect ratio : 1.85:1
Frame rate mode : Constant
Frame rate : 23.976 fps
Color space : YUV
Chroma subsampling : 4:2:0
Bit depth : 8 bits
Scan type : Progressive
Bits/(Pixel*Frame) : 0.150
Stream size : 1.57 GiB (72%)
Title : BDRip by AFM [torrentsland.com.ua]
Writing library : x264 core 148 r2665+53 6629127 t_mod_Custom [8-bit@all X86_64]
Encoding settings : cabac=1 / ref=12 / deblock=1:-2:-2 / analyse=0x3:0x113 / me=umh / subme=10 / psy=1 / fade_compensate=0.00 / psy_rd=1.00:0.00 / mixed_ref=1 / me_range=32 / chroma_me=1 / trellis=2 / 8x8dct=1 / cqm=0 / deadzone=21,11 / fast_pskip=0 / chroma_qp_offset=-2 / threads=6 / lookahead_threads=1 / sliced_threads=0 / nr=0 / decimate=0 / interlaced=0 / bluray_compat=0 / constrained_intra=0 / fgo=0 / bframes=13 / b_pyramid=2 / b_adapt=2 / b_bias=0 / direct=3 / weightb=1 / open_gop=0 / weightp=2 / keyint=250 / keyint_min=23 / scenecut=40 / intra_refresh=0 / rc_lookahead=40 / rc=2pass / mbtree=0 / bitrate=2170 / ratetol=1.0 / qcomp=0.65 / qpmin=0:0:0 / qpmax=69:69:69 / qpstep=4 / cplxblur=20.0 / qblur=0.5 / vbv_maxrate=50000 / vbv_bufsize=62500 / nal_hrd=none / filler=0 / ip_ratio=1.35 / pb_ratio=1.30 / aq=1:0.80 / aq-sensitivity=10.00 / aq-factor=1.00:1.00:1.00 / aq2=0 / aq3=0
Language : English
Default : Yes
Forced : No
Audio #1
ID : 2
Format : AC-3
Format/Info : Audio Coding 3
Mode extension : CM (complete main)
Format settings, Endianness : Big
Codec ID : A_AC3
Duration : 1h 46mn
Bit rate mode : Constant
Bit rate : 384 Kbps
Channel(s) : 6 channels
Channel positions : Front: L C R, Side: L R, LFE
Sampling rate : 48.0 KHz
Compression mode : Lossy
Stream size : 291 MiB (13%)
Title : Dub, AC3 5.1 ~384 kbps
Language : Russian
Default : Yes
Forced : No
Audio #2
ID : 3
Format : AC-3
Format/Info : Audio Coding 3
Mode extension : CM (complete main)
Format settings, Endianness : Big
Codec ID : A_AC3
Duration : 1h 46mn
Bit rate mode : Constant
Bit rate : 384 Kbps
Channel(s) : 6 channels
Channel positions : Front: L C R, Side: L R, LFE
Sampling rate : 48.0 KHz
Compression mode : Lossy
Stream size : 291 MiB (13%)
Title : Original, AC3 5.1 ~384 kbps
Language : English
Default : No
Forced : No
Text #1
ID : 4
Format : UTF-8
Codec ID : S_TEXT/UTF8
Codec ID/Info : UTF-8 Plain Text
Title : forced
Language : Russian
Default : Yes
Forced : No
Text #2
ID : 5
Format : UTF-8
Codec ID : S_TEXT/UTF8
Codec ID/Info : UTF-8 Plain Text
Language : Russian
Default : No
Forced : No
Text #3
ID : 6
Format : UTF-8
Codec ID : S_TEXT/UTF8
Codec ID/Info : UTF-8 Plain Text
Language : English
Default : No
Forced : No
Text #4
ID : 7
Format : UTF-8
Codec ID : S_TEXT/UTF8
Codec ID/Info : UTF-8 Plain Text
Title : SDH
Language : English
Default : No
Forced : No
Menu
00:00:00.000 : en:Chapter 01
00:03:59.322 : en:Chapter 02
00:09:38.369 : en:Chapter 03
00:12:58.735 : en:Chapter 04
00:17:34.173 : en:Chapter 05
00:22:29.221 : en:Chapter 06
00:29:55.960 : en:Chapter 07
00:35:37.425 : en:Chapter 08
00:41:49.088 : en:Chapter 09
00:47:09.617 : en:Chapter 10
00:50:40.746 : en:Chapter 11
00:57:25.108 : en:Chapter 12
01:01:17.422 : en:Chapter 13
01:07:21.911 : en:Chapter 14
01:14:02.229 : en:Chapter 15
01:17:41.363 : en:Chapter 16
01:22:38.703 : en:Chapter 17
01:28:54.412 : en:Chapter 18
01:33:50.957 : en:Chapter 19
01:39:26.417 : en:Chapter 20
01:46:05.649 : en:Chapter 21

x264

x264 [info]: frame I:1320 Avg QP:16.66 size: 95781
x264 [info]: frame P:33144 Avg QP:19.05 size: 23604
x264 [info]: frame B:118165 Avg QP:21.43 size: 6921
x264 [info]: consecutive B-frames: 4.2% 2.6% 4.6% 14.9% 17.5% 35.1% 8.3% 3.1% 2.4% 1.8% 1.4% 0.9% 1.4% 1.7%
x264 [info]: mb I I16..4: 4.2% 80.4% 15.3%
x264 [info]: mb P I16..4: 2.2% 4.2% 0.9% P16..4: 40.7% 25.5% 15.9% 0.0% 0.0% skip:10.5%
x264 [info]: mb B I16..4: 0.1% 0.3% 0.1% B16..8: 40.0% 10.5% 3.1% direct: 3.5% skip:42.4% L0:45.6% L1:44.2% BI:10.2%
x264 [info]: 8x8 transform intra:65.4% inter:58.9%
x264 [info]: direct mvs spatial:97.8% temporal:2.2%
x264 [info]: coded y,uvDC,uvAC intra: 77.3% 83.8% 71.8% inter: 19.9% 14.8% 8.0%
x264 [info]: i16 v,h,dc,p: 86% 5% 3% 6%
x264 [info]: i8 v,h,dc,ddl,ddr,vr,hd,vl,hu: 11% 9% 7% 9% 14% 13% 13% 11% 12%
x264 [info]: i4 v,h,dc,ddl,ddr,vr,hd,vl,hu: 11% 8% 3% 9% 15% 15% 14% 12% 13%
x264 [info]: i8c dc,h,v,p: 42% 25% 17% 16%
x264 [info]: Weighted P-Frames: Y:97.2% UV:1.8%
x264 [info]: ref P L0: 44.0% 9.0% 18.1% 6.2% 6.1% 4.0% 4.0% 1.8% 2.0% 1.5% 1.6% 1.4% 0.3% 0.0%
x264 [info]: ref B L0: 62.8% 14.3% 7.6% 4.2% 3.0% 2.7% 2.1% 1.3% 1.1% 0.7% 0.3%
x264 [info]: ref B L1: 90.0% 10.0%
x264 [info]: kb/s:2169.84

Скриншоты

с названием

[Profile]  [PM] 
Display posts:    
Reply to topic

Current time is: 22-Jan 14:27

All times are UTC + 2



You cannot post new topics in this forum
You cannot reply to topics in this forum
You cannot edit your posts in this forum
You cannot delete your posts in this forum
You cannot vote in polls in this forum
You cannot attach files in this forum
You cannot download files in this forum