До самого конца / All the Way (Джей Роуч / Jay Roach) [2016, США, драма, биография, история, HDTVRip] MVO (Amedia)

Reply to topic
 
Author
Message

Satyr ®

Gender: Unknown

Longevity: 11 years

Posts: 15401

Reputation: 55 [+] [-]

Satyr · Post 11-Sep-2016 01:25

[Quote] 

До самого конца / All the Way
Страна: США
Жанр: драма, биография, история
Год выпуска: 2016
Продолжительность: 02:05:49
Перевод: Профессиональный (многоголосый закадровый) Amedia
Cубтитры: нет
Режиссер: Джей Роуч / Jay Roach
В ролях: Энтони Маки, Брайан Крэнстон, Джо Мортон, Брэдли Уитфорд, Фрэнк Ланджелла, Стивен Рут, Мелисса Лео, Итэн Филлипс
Описание: Линдон Джонсон становится президентом США на волне всеобщего хаоса, вызванного внезапным убийством Джона Кеннеди. В первый же год на посту главы государства Линдон Джонсон способствует принятию Акта о гражданских правах, который положит конец расовой сегрегации на юге страны — по крайней мере на бумаге.
Сэмпл: http://multi-up.com/1103161
http://screenshotcomparison.com/comparison/174172/picture:0 http://torrentsland.com.ua/forum/viewtopic.php?t=5230431
здесь полный перевод Качество видео: HDTVRip (All the Way_HD)-Kinozal
Формат видео: AVI
Видео: 720x400 (1.80:1), 25 fps, XviD build 73 ~1271 kbps avg, 0.18 bit/pixel
Аудио: 48 kHz, AC3 Dolby Digital, 3/2 (L,C,R,l,r) + LFE ch, ~384 kbps MVO

MediaInfo

Формат : AVI
Формат/Информация : Audio Video Interleave
Размер файла : 1,46 Гбайт
Продолжительность : 2 ч. 5 м.
Общий поток : 1665 Кбит/сек
Программа кодирования : VirtualDubMod 1.5.10.3 | www.virtualdub-fr.org || (build 2550/release)
Библиотека кодирования : VirtualDubMod build 2550/release
Видео
Идентификатор : 0
Формат : MPEG-4 Visual
Профиль формата : Advanced Simple@L5
Параметр BVOP формата : 1
Параметр QPel формата : Нет
Параметр GMC формата : Без точки перехода
Параметр матрицы формата : Выборочная
Идентификатор кодека : XVID
Идентификатор кодека/Подсказка : XviD
Продолжительность : 2 ч. 5 м.
Битрейт : 1272 Кбит/сек
Ширина : 720 пикселей
Высота : 400 пикселей
Соотношение сторон : 16:9
Частота кадров : 25,000 кадров/сек
Цветовое пространство : YUV
Субдискретизация насыщенности : 4:2:0
Битовая глубина : 8 бит
Тип развёртки : Прогрессивная
Метод сжатия : С потерями
Бит/(Пиксели*Кадры) : 0.177
Размер потока : 1,12 Гбайт (76%)
Библиотека кодирования : XviD 73
Аудио
Идентификатор : 1
Формат : AC-3
Формат/Информация : Audio Coding 3
Расширение режима : CM (complete main)
Параметр Endianness формата : Big
Идентификатор кодека : 2000
Продолжительность : 2 ч. 5 м.
Вид битрейта : Постоянный
Битрейт : 384 Кбит/сек
Каналы : 6 каналов
Расположение каналов : Front: L C R, Side: L R, LFE
Частота : 48,0 КГц
Частота кадров : 31,250 кадров/сек (1536 spf)
Метод сжатия : С потерями
Размер потока : 346 Мбайт (23%)
Выравнивание : Разделение по промежуткам
Продолжительность промежутка : 40 мс. (1,00 видеокадр)
Время предзагрузки промежутка : 500 мс.

Скриншоты

[Profile]  [PM] 
Display posts:    
Reply to topic

Current time is: 18-Sep 16:02

All times are UTC + 2



You cannot post new topics in this forum
You cannot reply to topics in this forum
You cannot edit your posts in this forum
You cannot delete your posts in this forum
You cannot vote in polls in this forum
You cannot attach files in this forum
You cannot download files in this forum