Гордость и предубеждение и зомби / Pride and Prejudice and Zombies (Бёрр Стирс / Burr Steers) [2016, США, Великобритания, ужасы, боевик, мелодрама, BDRip-AVC] Dub + Original (eng) + Sub (eng)

Reply to topic
 
Author
Message

Satyr ®

Gender: Unknown

Longevity: 11 years

Posts: 15401

Reputation: 55 [+] [-]

Satyr · Post 11-Sep-2016 01:25

[Quote] 

Гордость и предубеждение и зомби
Pride and Prejudice and Zombies
«'It is a truth universally acknowledged that a zombie in possession of brains must be in want of more brains.' - Jane Austen and Seth Grahame-Smith»

Страна: США, Великобритания
Жанр: ужасы, боевик, мелодрама
Год выпуска: 2016
Продолжительность: 01:47:32
Перевод: Профессиональный (полное дублирование)
Cубтитры: английские (полные, SDH)
Оригинальная аудиодорожка: английский
Режиссер: Бёрр Стирс / Burr Steers
В ролях: Лили Джеймс, Сэм Райли, Белла Хиткот, Элли Бамбер, Милли Брэйди, Сьюки Уотерхаус, Дуглас Бут, Сэлли Филлипс, Чарльз Дэнс, Джек Хьюстон, Лина Хиди, Мэтт Смит
Описание:
Англия, XIX век. Элизабет Беннет и её сестры вынуждены противостоять заполонившим Англию ходячим мертвецам, а так же девушки сталкиваются с давлением необходимости найти себе мужей.
Автор рипа: stalkerok
Сэмпл
Качество видео: BDRip-AVC [Pride.And.Prejudice.And.Zombies.2016.COMPLETE.BLURAY-BAKED]
Формат видео: MKV
Видео кодек: AVC
Аудио кодек: AC3
Видео: 2008 Кбит/сек, 1104*460 (2,40:1), в 23,976 (24000/1001) кадра/сек, AVC
Аудио #1: русский, 448 Кбит/сек, 48 КГц, 16 бит, 5.1, AC3 [Источник: HDCLUB]
Аудио #2: английский, 448 Кбит/сек, 48 КГц, 16 бит, 5.1, AC3
Навигация по главам: есть

MediaInfo

Общее
Уникальный идентификатор : 194209498023719810272472458812512970900 (0x921B63869DBC91FFAF9E39983256A894)
Полное имя : M:\1Rips\Pride and Prejudice and Zombies\Pride.and.Prejudice.and.Zombies.2016.BDRip-AVC.Dub.2.18Gb.stalkerok.new-team.mkv
Формат : Matroska
Версия формата : Version 4 / Version 2
Размер файла : 2,18 Гбайт
Продолжительность : 1 ч. 47 м.
Общий поток : 2906 Кбит/сек
Название фильма : Pride and Prejudice and Zombies (2016) (New-Team) (Rip by stalkerok)
Дата кодирования : UTC 2016-05-21 18:30:40
Программа кодирования : mkvmerge v8.6.1 ('Flying') 64bit
Библиотека кодирования : libebml v1.3.3 + libmatroska v1.4.4
Видео
Идентификатор : 1
Формат : AVC
Формат/Информация : Advanced Video Codec
Профиль формата : High@L4.1
Параметр CABAC формата : Да
Параметр ReFrames формата : 13 кадров
Идентификатор кодека : V_MPEG4/ISO/AVC
Продолжительность : 1 ч. 47 м.
Битрейт : 2008 Кбит/сек
Ширина : 1104 пикселя
Высота : 460 пикселей
Соотношение сторон : 2,40:1
Режим частоты кадров : Постоянный
Частота кадров : 23,976 (24000/1001) кадра/сек
Цветовое пространство : YUV
Субдискретизация насыщенности : 4:2:0
Битовая глубина : 8 бит
Тип развёртки : Прогрессивная
Бит/(Пиксели*Кадры) : 0.165
Размер потока : 1,51 Гбайт (69%)
Заголовок : Pride and Prejudice and Zombies (2016) (New-Team) (Rip by stalkerok)
Библиотека кодирования : x264 core 148 r2665kMod a01e339
Настройки программы : cabac=1 / ref=13 / deblock=1:-3:-2 / analyse=0x3:0x133 / me=umh / subme=10 / psy=1 / fade_compensate=0.00 / psy_rd=1.00:0.00 / mixed_ref=1 / me_range=32 / chroma_me=1 / trellis=2 / 8x8dct=1 / cqm=0 / deadzone=21,11 / fast_pskip=0 / chroma_qp_offset=-2 / threads=12 / lookahead_threads=3 / sliced_threads=0 / nr=0 / decimate=0 / interlaced=0 / bluray_compat=0 / constrained_intra=0 / fgo=0 / bframes=13 / b_pyramid=2 / b_adapt=2 / b_bias=0 / direct=3 / weightb=1 / open_gop=0 / weightp=2 / keyint=240 / keyint_min=23 / scenecut=40 / intra_refresh=0 / rc_lookahead=60 / rc=2pass / mbtree=0 / bitrate=2008 / ratetol=1.0 / qcomp=0.65 / qpmin=0 / qpmax=69 / qpstep=4 / cplxblur=20.0 / qblur=0.5 / vbv_maxrate=50000 / vbv_bufsize=62500 / nal_hrd=none / filler=0 / ip_ratio=1.40 / pb_ratio=1.30 / aq=1:0.80
Default : Да
Forced : Нет
Аудио #1
Идентификатор : 2
Формат : AC-3
Формат/Информация : Audio Coding 3
Расширение режима : CM (complete main)
Параметр Endianness формата : Big
Идентификатор кодека : A_AC3
Продолжительность : 1 ч. 47 м.
Вид битрейта : Постоянный
Битрейт : 448 Кбит/сек
Каналы : 6 каналов
Расположение каналов : Front: L C R, Side: L R, LFE
Частота : 48,0 КГц
Частота кадров : 31,250 кадров/сек (1536 spf)
Метод сжатия : С потерями
Размер потока : 345 Мбайт (15%)
Язык : Russian
Default : Да
Forced : Нет
Аудио #2
Идентификатор : 3
Формат : AC-3
Формат/Информация : Audio Coding 3
Расширение режима : CM (complete main)
Параметр Endianness формата : Big
Идентификатор кодека : A_AC3
Продолжительность : 1 ч. 47 м.
Вид битрейта : Постоянный
Битрейт : 448 Кбит/сек
Каналы : 6 каналов
Расположение каналов : Front: L C R, Side: L R, LFE
Частота : 48,0 КГц
Частота кадров : 31,250 кадров/сек (1536 spf)
Метод сжатия : С потерями
Размер потока : 345 Мбайт (15%)
Язык : English
Default : Нет
Forced : Нет
Текст #1
Идентификатор : 4
Формат : UTF-8
Идентификатор кодека : S_TEXT/UTF8
Идентификатор кодека/Информация : UTF-8 Plain Text
Продолжительность : 1 ч. 46 м.
Битрейт : 58 бит/сек
Count of elements : 1293
Размер потока : 46,0 Кбайт (0%)
Язык : English
Default : Нет
Forced : Нет
Текст #2
Идентификатор : 5
Формат : UTF-8
Идентификатор кодека : S_TEXT/UTF8
Идентификатор кодека/Информация : UTF-8 Plain Text
Продолжительность : 1 ч. 46 м.
Битрейт : 65 бит/сек
Count of elements : 1486
Размер потока : 50,8 Кбайт (0%)
Заголовок : SDH
Язык : English
Default : Нет
Forced : Нет
Меню
00:00:00.000 : en:Chapter 1
00:06:41.317 : en:Chapter 2
00:11:50.250 : en:Chapter 3
00:17:59.993 : en:Chapter 4
00:24:06.443 : en:Chapter 5
00:31:53.036 : en:Chapter 6
00:37:43.594 : en:Chapter 7
00:44:22.242 : en:Chapter 8
00:52:06.623 : en:Chapter 9
00:59:28.606 : en:Chapter 10
01:05:45.231 : en:Chapter 11
01:11:16.979 : en:Chapter 12
01:18:40.673 : en:Chapter 13
01:25:03.347 : en:Chapter 14
01:30:18.162 : en:Chapter 15
01:35:49.743 : en:Chapter 16

x264 log

---[Information] [21.05.2016 20:27:44] x264 [info]: frame I:1231 Avg QP:13.02 size: 80310
---[Information] [21.05.2016 20:27:44] x264 [info]: frame P:35762 Avg QP:16.12 size: 23116
---[Information] [21.05.2016 20:27:44] x264 [info]: frame B:117711 Avg QP:18.76 size: 5892
---[Information] [21.05.2016 20:27:44] x264 [info]: consecutive B-frames: 2.3% 3.1% 8.4% 35.4% 14.1% 22.9% 4.6% 7.4% 0.7% 0.2% 0.2% 0.5% 0.1% 0.0%

Скриншоты

[Profile]  [PM] 
Display posts:    
Reply to topic

Current time is: 01-Oct 05:40

All times are UTC + 2



You cannot post new topics in this forum
You cannot reply to topics in this forum
You cannot edit your posts in this forum
You cannot delete your posts in this forum
You cannot vote in polls in this forum
You cannot attach files in this forum
You cannot download files in this forum