Боги Египта / Gods of Egypt (Алекс Пройас / Alex Proyas) [2016, США, фэнтези, боевик, приключения, BDRip-AVC] Dub + Original +Sub (rus, eng)

Reply to topic
 
Author
Message

Satyr ®

Gender: Unknown

Longevity: 11 years

Posts: 15401

Reputation: 55 [+] [-]

Satyr · Post 11-Sep-2016 01:25

[Quote] 

Боги Египта / Gods of Egypt«All of Heaven is at war»- Страна: США
Жанр: фэнтези, боевик, приключения
Год выпуска: 2016
Продолжительность: 02:07:02
Перевод: Профессиональный (полное дублирование)
Оригинальная аудиодорожка: английский
Cубтитры: русские (полные), английские (полные, SDH)
Навигация по главам: есть
Режиссер: Алекс Пройас / Alex Proyas
В ролях: Джерард Батлер, Николай Костер-Вальдау, Брентон Туэйтс, Чэдвик Боузман, Руфус Сьюэлл, Джон Самаха, Кортни Итон, Паула Арунделл, Алиа Серор-О’Нилл, Эмили Уитон, Элоди Юнг, Рэйчел Блэйк, Брайан Браун, Майкл-Энтони Тейлор, Эмма Бут, Феликс Уильямсон, Александр Инглэнд, Йен Робертс, Горан Д’Клюе, Йайа Ден
Описание: Некогда мирное и процветающее египетское царство погружается в хаос: беспощадный бог тьмы Сет убивает своего брата Осириса и узурпирует трон. Вызов ему неожиданно бросает простой смертный, находчивый молодой вор. Чтобы вернуть к жизни свою прекрасную возлюбленную, ему приходится заручиться поддержкой могущественного и мстительного бога Гора. Лишь выдержав испытание на прочность и принеся в жертву все самое дорогое, им удастся противостоять Сету и его приспешникам в мире живых и мире мертвых.

Качество видео: BDRip-AVC (исходник - BDRemux|GODS_OF_EGYPT_REMUX_HDCLUB)
Формат видео: MKV
Видео: x264, 1024х426 (2.40:1), 23,976 fps, ~2440 kbps, 0.233 bit/pixel
Аудио 1: 48 kHz, AC3 Dolby Digital, 3/2 (L,C,R,l,r) + LFE ch, ~448 kbps [русский]
Аудио 2: 48 kHz, AC3 Dolby Digital, 3/2 (L,C,R,l,r) + LFE ch, ~384 kbps [английский]
Формат субтитров: softsub (SRT)

MediaInfo | x264 log

Format : Matroska
Format version : Version 4 / Version 2
File size : 2.90 GiB
Duration : 2h 7mn
Overall bit rate : 3 269 Kbps
Movie name : Боги Египта / Gods of Egypt (2016) :: AFM ::
Encoded date : UTC 2016-05-21 14:16:30
Writing application : mkvmerge v8.3.0 ('Over the Horizon') 32bit
Writing library : libebml v1.3.1 + libmatroska v1.4.2
Video
ID : 1
Format : AVC
Format/Info : Advanced Video Codec
Format profile : High@L4.1
Format settings, CABAC : Yes
Format settings, ReFrames : 12 frames
Codec ID : V_MPEG4/ISO/AVC
Duration : 2h 7mn
Bit rate : 2 440 Kbps
Width : 1 024 pixels
Height : 426 pixels
Display aspect ratio : 2.40:1
Frame rate mode : Constant
Frame rate : 23.976 fps
Color space : YUV
Chroma subsampling : 4:2:0
Bit depth : 8 bits
Scan type : Progressive
Bits/(Pixel*Frame) : 0.233
Stream size : 2.10 GiB (73%)
Title : BDRip by AFM [torrentsland.com.ua]
Writing library : x264 core 148 r2665+53 6629127 t_mod_Custom [8-bit@all X86_64]
Encoding settings : cabac=1 / ref=12 / deblock=1:-3:-2 / analyse=0x3:0x113 / me=umh / subme=10 / psy=1 / fade_compensate=0.00 / psy_rd=1.00:0.00 / mixed_ref=1 / me_range=32 / chroma_me=1 / trellis=2 / 8x8dct=1 / cqm=0 / deadzone=21,11 / fast_pskip=0 / chroma_qp_offset=-2 / threads=6 / lookahead_threads=1 / sliced_threads=0 / nr=0 / decimate=0 / interlaced=0 / bluray_compat=0 / constrained_intra=0 / fgo=0 / bframes=13 / b_pyramid=2 / b_adapt=2 / b_bias=0 / direct=3 / weightb=1 / open_gop=0 / weightp=2 / keyint=250 / keyint_min=23 / scenecut=40 / intra_refresh=0 / rc_lookahead=40 / rc=2pass / mbtree=0 / bitrate=2440 / ratetol=1.0 / qcomp=0.65 / qpmin=0:0:0 / qpmax=69:69:69 / qpstep=4 / cplxblur=20.0 / qblur=0.5 / vbv_maxrate=50000 / vbv_bufsize=62500 / nal_hrd=none / filler=0 / ip_ratio=1.33 / pb_ratio=1.25 / aq=1:0.90 / aq-sensitivity=10.00 / aq-factor=1.00:1.00:1.00 / aq2=0 / aq3=0
Language : English
Default : Yes
Forced : No
Audio #1
ID : 2
Format : AC-3
Format/Info : Audio Coding 3
Mode extension : CM (complete main)
Format settings, Endianness : Big
Codec ID : A_AC3
Duration : 2h 7mn
Bit rate mode : Constant
Bit rate : 448 Kbps
Channel(s) : 6 channels
Channel positions : Front: L C R, Side: L R, LFE
Sampling rate : 48.0 KHz
Compression mode : Lossy
Stream size : 407 MiB (14%)
Title : Dub, AC3 5.1 ~448 kbps
Language : Russian
Default : Yes
Forced : No
Audio #2
ID : 3
Format : AC-3
Format/Info : Audio Coding 3
Mode extension : CM (complete main)
Format settings, Endianness : Big
Codec ID : A_AC3
Duration : 2h 7mn
Bit rate mode : Constant
Bit rate : 384 Kbps
Channel(s) : 6 channels
Channel positions : Front: L C R, Side: L R, LFE
Sampling rate : 48.0 KHz
Compression mode : Lossy
Stream size : 349 MiB (12%)
Title : Original, AC3 5.1 ~384 kbps
Language : English
Default : No
Forced : No
Text #1
ID : 4
Format : UTF-8
Codec ID : S_TEXT/UTF8
Codec ID/Info : UTF-8 Plain Text
Language : Russian
Default : No
Forced : No
Text #2
ID : 5
Format : UTF-8
Codec ID : S_TEXT/UTF8
Codec ID/Info : UTF-8 Plain Text
Language : English
Default : No
Forced : No
Text #3
ID : 6
Format : UTF-8
Codec ID : S_TEXT/UTF8
Codec ID/Info : UTF-8 Plain Text
Title : SDH
Language : English
Default : No
Forced : No
Menu
00:00:00.000 : en:00:00:00.000
00:07:08.011 : en:00:07:08.011
00:18:07.545 : en:00:18:07.545
00:23:47.259 : en:00:23:47.259
00:30:11.810 : en:00:30:11.810
00:39:16.521 : en:00:39:16.521
00:46:30.621 : en:00:46:30.621
00:54:46.074 : en:00:54:46.074
01:01:14.129 : en:01:01:14.129
01:09:29.040 : en:01:09:29.040
01:18:03.345 : en:01:18:03.345
01:28:18.251 : en:01:28:18.251
01:36:12.058 : en:01:36:12.058
01:39:14.657 : en:01:39:14.657
01:46:58.328 : en:01:46:58.328
01:52:11.016 : en:01:52:11.016

x264

x264 [info]: frame I:1700 Avg QP:15.64 size: 76645
x264 [info]: frame P:45682 Avg QP:18.64 size: 24438
x264 [info]: frame B:135378 Avg QP:20.12 size: 7924
x264 [info]: consecutive B-frames: 3.8% 4.9% 11.2% 28.3% 18.9% 25.1% 3.1% 1.0% 0.6% 1.9% 0.3% 0.1% 0.2% 0.6%
x264 [info]: mb I I16..4: 5.4% 70.1% 24.5%
x264 [info]: mb P I16..4: 1.2% 11.2% 2.1% P16..4: 35.3% 27.7% 15.9% 0.0% 0.0% skip: 6.6%
x264 [info]: mb B I16..4: 0.1% 0.8% 0.3% B16..8: 35.4% 13.2% 4.5% direct: 6.5% skip:39.1% L0:39.8% L1:42.9% BI:17.3%
x264 [info]: 8x8 transform intra:74.9% inter:59.6%
x264 [info]: direct mvs spatial:96.3% temporal:3.7%
x264 [info]: coded y,uvDC,uvAC intra: 85.8% 85.3% 66.0% inter: 27.4% 23.7% 11.2%
x264 [info]: i16 v,h,dc,p: 34% 13% 8% 45%
x264 [info]: i8 v,h,dc,ddl,ddr,vr,hd,vl,hu: 11% 9% 7% 9% 13% 13% 14% 11% 14%
x264 [info]: i4 v,h,dc,ddl,ddr,vr,hd,vl,hu: 11% 8% 4% 9% 15% 14% 14% 11% 14%
x264 [info]: i8c dc,h,v,p: 42% 23% 18% 17%
x264 [info]: Weighted P-Frames: Y:97.4% UV:4.1%
x264 [info]: ref P L0: 51.2% 14.2% 14.0% 5.5% 3.9% 2.9% 2.4% 1.5% 1.3% 1.1% 1.0% 1.0% 0.2% 0.0%
x264 [info]: ref B L0: 76.6% 10.8% 4.8% 2.3% 1.6% 1.2% 1.0% 0.6% 0.5% 0.3% 0.2%
x264 [info]: ref B L1: 92.8% 7.2%
x264 [info]: kb/s:2434.28

Скриншоты

с названием

[Profile]  [PM] 
Display posts:    
Reply to topic

Current time is: 24-Jan 07:31

All times are UTC + 2



You cannot post new topics in this forum
You cannot reply to topics in this forum
You cannot edit your posts in this forum
You cannot delete your posts in this forum
You cannot vote in polls in this forum
You cannot attach files in this forum
You cannot download files in this forum