Боги Египта / Gods of Egypt (Алекс Пройас / Alex Proyas) [2016, США, фэнтези, боевик, приключения, BDRip-AVC] Dub + Original + Sub (rus, eng)

Reply to topic
 
Author
Message

Satyr ®

Gender: Unknown

Longevity: 11 years

Posts: 15401

Reputation: 55 [+] [-]

Satyr · Post 11-Sep-2016 01:25

[Quote] 

Боги Египта / Gods of Egypt«All of Heaven is at war»- Страна: США
Жанр: фэнтези, боевик, приключения
Год выпуска: 2016
Продолжительность: 02:07:02
Перевод: Профессиональный (полное дублирование)
Оригинальная аудиодорожка: английский
Cубтитры: русские (полные), английские (полные, SDH)
Навигация по главам: есть
Режиссер: Алекс Пройас / Alex Proyas
В ролях: Джерард Батлер, Николай Костер-Вальдау, Брентон Туэйтс, Чэдвик Боузман, Руфус Сьюэлл, Джон Самаха, Кортни Итон, Паула Арунделл, Алиа Серор-О’Нилл, Эмили Уитон, Элоди Юнг, Рэйчел Блэйк, Брайан Браун, Майкл-Энтони Тейлор, Эмма Бут, Феликс Уильямсон, Александр Инглэнд, Йен Робертс, Горан Д’Клюе, Йайа Ден
Описание: Некогда мирное и процветающее египетское царство погружается в хаос: беспощадный бог тьмы Сет убивает своего брата Осириса и узурпирует трон. Вызов ему неожиданно бросает простой смертный, находчивый молодой вор. Чтобы вернуть к жизни свою прекрасную возлюбленную, ему приходится заручиться поддержкой могущественного и мстительного бога Гора. Лишь выдержав испытание на прочность и принеся в жертву все самое дорогое, им удастся противостоять Сету и его приспешникам в мире живых и мире мертвых.

Качество видео: BDRip-AVC (исходник - BDRemux|GODS_OF_EGYPT_REMUX_HDCLUB)
Формат видео: MKV
Видео: x264, 1152х480 (2.40:1), 23,976 fps, ~3926 kbps, 0.296 bit/pixel
Аудио 1: 48 kHz, AC3 Dolby Digital, 3/2 (L,C,R,l,r) + LFE ch, ~448 kbps [русский]
Аудио 2: 48 kHz, AC3 Dolby Digital, 3/2 (L,C,R,l,r) + LFE ch, ~448 kbps [английский]
Формат субтитров: softsub (SRT)

MediaInfo | x264 log

Format : Matroska
Format version : Version 4 / Version 2
File size : 4.37 GiB
Duration : 2h 7mn
Overall bit rate : 4 920 Kbps
Movie name : Боги Египта / Gods of Egypt (2016) :: AFM ::
Encoded date : UTC 2016-05-21 10:34:32
Writing application : mkvmerge v8.3.0 ('Over the Horizon') 32bit
Writing library : libebml v1.3.1 + libmatroska v1.4.2
Video
ID : 1
Format : AVC
Format/Info : Advanced Video Codec
Format profile : High@L4.1
Format settings, CABAC : Yes
Format settings, ReFrames : 12 frames
Codec ID : V_MPEG4/ISO/AVC
Duration : 2h 7mn
Bit rate : 3 926 Kbps
Width : 1 152 pixels
Height : 480 pixels
Display aspect ratio : 2.40:1
Frame rate mode : Constant
Frame rate : 23.976 fps
Color space : YUV
Chroma subsampling : 4:2:0
Bit depth : 8 bits
Scan type : Progressive
Bits/(Pixel*Frame) : 0.296
Stream size : 3.48 GiB (80%)
Title : BDRip by AFM [torrentsland.com.ua]
Writing library : x264 core 148 r2665+53 6629127 t_mod_Custom [8-bit@all X86_64]
Encoding settings : cabac=1 / ref=12 / deblock=1:-3:-2 / analyse=0x3:0x113 / me=umh / subme=10 / psy=1 / fade_compensate=0.00 / psy_rd=1.00:0.00 / mixed_ref=1 / me_range=32 / chroma_me=1 / trellis=2 / 8x8dct=1 / cqm=0 / deadzone=21,11 / fast_pskip=0 / chroma_qp_offset=-2 / threads=6 / lookahead_threads=1 / sliced_threads=0 / nr=0 / decimate=1 / interlaced=0 / bluray_compat=0 / constrained_intra=0 / fgo=0 / bframes=13 / b_pyramid=2 / b_adapt=2 / b_bias=0 / direct=1 / weightb=1 / open_gop=0 / weightp=2 / keyint=250 / keyint_min=23 / scenecut=40 / intra_refresh=0 / rc_lookahead=40 / rc=crf / mbtree=0 / crf=16.2500 / qcomp=0.65 / qpmin=0:0:0 / qpmax=69:69:69 / qpstep=4 / vbv_maxrate=50000 / vbv_bufsize=62500 / crf_max=0.0 / nal_hrd=none / filler=0 / ip_ratio=1.33 / pb_ratio=1.25 / aq=1:0.90 / aq-sensitivity=10.00 / aq-factor=1.00:1.00:1.00 / aq2=0 / aq3=0
Language : English
Default : Yes
Forced : No
Audio #1
ID : 2
Format : AC-3
Format/Info : Audio Coding 3
Mode extension : CM (complete main)
Format settings, Endianness : Big
Codec ID : A_AC3
Duration : 2h 7mn
Bit rate mode : Constant
Bit rate : 448 Kbps
Channel(s) : 6 channels
Channel positions : Front: L C R, Side: L R, LFE
Sampling rate : 48.0 KHz
Compression mode : Lossy
Stream size : 407 MiB (9%)
Title : Dub, AC3 5.1 ~448 kbps
Language : English
Default : Yes
Forced : No
Audio #2
ID : 3
Format : AC-3
Format/Info : Audio Coding 3
Mode extension : CM (complete main)
Format settings, Endianness : Big
Codec ID : A_AC3
Duration : 2h 7mn
Bit rate mode : Constant
Bit rate : 448 Kbps
Channel(s) : 6 channels
Channel positions : Front: L C R, Side: L R, LFE
Sampling rate : 48.0 KHz
Compression mode : Lossy
Stream size : 407 MiB (9%)
Title : Original, AC3 5.1 ~448 kbps
Language : English
Default : No
Forced : No
Text #1
ID : 4
Format : UTF-8
Codec ID : S_TEXT/UTF8
Codec ID/Info : UTF-8 Plain Text
Language : Russian
Default : No
Forced : No
Text #2
ID : 5
Format : UTF-8
Codec ID : S_TEXT/UTF8
Codec ID/Info : UTF-8 Plain Text
Language : English
Default : No
Forced : No
Text #3
ID : 6
Format : UTF-8
Codec ID : S_TEXT/UTF8
Codec ID/Info : UTF-8 Plain Text
Title : SDH
Language : English
Default : No
Forced : No
Menu
00:00:00.000 : en:00:00:00.000
00:07:08.011 : en:00:07:08.011
00:18:07.545 : en:00:18:07.545
00:23:47.259 : en:00:23:47.259
00:30:11.810 : en:00:30:11.810
00:39:16.521 : en:00:39:16.521
00:46:30.621 : en:00:46:30.621
00:54:46.074 : en:00:54:46.074
01:01:14.129 : en:01:01:14.129
01:09:29.040 : en:01:09:29.040
01:18:03.345 : en:01:18:03.345
01:28:18.251 : en:01:28:18.251
01:36:12.058 : en:01:36:12.058
01:39:14.657 : en:01:39:14.657
01:46:58.328 : en:01:46:58.328
01:52:11.016 : en:01:52:11.016

x264

x264 [info]: frame I:1755 Avg QP:15.15 size: 98082
x264 [info]: frame P:40569 Avg QP:16.46 size: 40206
x264 [info]: frame B:140436 Avg QP:18.49 size: 14447
x264 [info]: consecutive B-frames: 2.2% 2.6% 8.5% 27.2% 20.2% 27.0% 3.7% 5.5% 0.7% 0.4% 0.3% 0.1% 1.1% 0.6%
x264 [info]: mb I I16..4: 5.1% 74.0% 20.9%
x264 [info]: mb P I16..4: 1.0% 16.6% 2.2% P16..4: 29.6% 27.9% 17.1% 0.0% 0.0% skip: 5.5%
x264 [info]: mb B I16..4: 0.1% 1.8% 0.3% B16..8: 33.5% 15.9% 5.9% direct: 8.5% skip:33.9% L0:40.1% L1:40.6% BI:19.3%
x264 [info]: 8x8 transform intra:81.6% inter:56.4%
x264 [info]: coded y,uvDC,uvAC intra: 90.9% 90.6% 78.2% inter: 33.6% 27.7% 9.4%
x264 [info]: i16 v,h,dc,p: 45% 12% 8% 36%
x264 [info]: i8 v,h,dc,ddl,ddr,vr,hd,vl,hu: 10% 10% 10% 9% 13% 12% 13% 11% 14%
x264 [info]: i4 v,h,dc,ddl,ddr,vr,hd,vl,hu: 9% 8% 4% 9% 16% 14% 14% 11% 14%
x264 [info]: i8c dc,h,v,p: 46% 21% 16% 16%
x264 [info]: Weighted P-Frames: Y:96.9% UV:5.6%
x264 [info]: ref P L0: 47.9% 13.9% 15.4% 6.3% 4.5% 3.1% 2.6% 1.6% 1.4% 1.2% 1.1% 1.0% 0.2% 0.0%
x264 [info]: ref B L0: 75.7% 10.6% 4.8% 2.7% 1.7% 1.4% 1.1% 0.7% 0.6% 0.4% 0.2%
x264 [info]: ref B L1: 93.3% 6.7%
x264 [info]: kb/s:4021.91

Скриншоты

с названием

[~~ Source ~~

~~ Rip ~~
[Profile]  [PM] 
Display posts:    
Reply to topic

Current time is: 29-Sep 17:51

All times are UTC + 2



You cannot post new topics in this forum
You cannot reply to topics in this forum
You cannot edit your posts in this forum
You cannot delete your posts in this forum
You cannot vote in polls in this forum
You cannot attach files in this forum
You cannot download files in this forum