Команда уничтожить / Kill Command / Identify (Стивен Гомез / Steven Gomez) [2016, Великобритания, Ужасы, фантастика, боевик, BDRip-AVC] DVO

Reply to topic
 
Author
Message

Satyr ®

Online

Gender: Unknown

Longevity: 15 years

Posts: 22035

Reputation: 56 [+] [-]

Satyr · Post 11-Sep-2016 01:25

[Quote] 

Команда уничтожить / Kill Command / Identify
«Подчинись роботам!»- Год выхода: 2016
Выпущено: Великобритания / Vertigo Films
Жанр: ужасы, фантастика, боевик
Продолжительность: 01:39:32
Перевод: Любительский (двухголосый закадровый)
Субтитры: нет
Навигация по главам: Есть (12 глав)-Режиссер:
Стивен Гомез / Steven Gomez-В ролях:
Ванесса Кирби (Mills), Туре Линдхардт (Captain Bukes), Дэвид Аджала (Drifter), Майк Ноубл (Goodwin), Том МакКэй (Cutbill), Бентли Калу (Robinson), Оси Окерафор (Loftus), Дебора Росан (Laboratory Technician), Дэмиэн Келл (Winder)-О фильме:
Недалекое будущее. Экспериментальный отряд специальных агентов высаживается на необитаемом острове для прохождения интенсивных боевых учений. Но на острове высадился кто-то еще. И это — не люди…-Релиз групп | | IMDB | КиноПоиск | Сэмпл |-Качество: BDRip-AVC [Kill.Command.2016.1080p.BluRay.REMUX.AVC.DTS-HD.MA.5.1-FGT]
Формат: MKV
Видео: 1056x440 (2.40:1), 24.000 fps, x264 ~1705 kbps avg, 0.153 bit/pixel
Аудио: 48 kHz, AC3 Dolby Digital, 3/2 (L,C,R,l,r) + LFE ch, ~384 kbps avg- -

Скриншоты

-

MediaInfo

General
Complete name                            : D:\Komanda unichtozhit`_2016_BDRip-AVC_DVO_by_Dalemake.mkv
Format                                   : Matroska
Format version                           : Version 4 / Version 2
File size                                : 1.45 GiB
Duration                                 : 1h 39mn
Overall bit rate                         : 2 090 Kbps
Encoded date                             : UTC 2016-05-19 15:54:41
Writing application                      : mkvmerge v7.8.0 ('River Man') 32bit built on Apr  3 2015 12:11:22
Writing library                          : libebml v1.3.1 + libmatroska v1.4.2
Video
ID                                       : 1
Format                                   : AVC
Format/Info                              : Advanced Video Codec
Format profile                           : High@L4.1
Format settings, CABAC                   : Yes
Format settings, ReFrames                : 10 frames
Codec ID                                 : V_MPEG4/ISO/AVC
Duration                                 : 1h 39mn
Bit rate                                 : 1 705 Kbps
Width                                    : 1 056 pixels
Height                                   : 440 pixels
Display aspect ratio                     : 2.40:1
Frame rate mode                          : Constant
Frame rate                               : 24.000 fps
Color space                              : YUV
Chroma subsampling                       : 4:2:0
Bit depth                                : 8 bits
Scan type                                : Progressive
Bits/(Pixel*Frame)                       : 0.153
Stream size                              : 1.19 GiB (82%)
Title                                    : [Komanda unichtozhit`_2016_All Films_Rutracker.org_by Dalemake]
Writing library                          : x264 core 146 r2538 121396c
Encoding settings                        : cabac=1 / ref=10 / deblock=1:-2:-1 / analyse=0x3:0x133 / me=umh / subme=11 / psy=1 / psy_rd=1.00:0.00 / mixed_ref=1 / me_range=32 / chroma_me=1 / trellis=2 / 8x8dct=1 / cqm=0 / deadzone=21,11 / fast_pskip=1 / chroma_qp_offset=-4 / threads=6 / lookahead_threads=1 / sliced_threads=0 / nr=0 / decimate=0 / interlaced=0 / bluray_compat=0 / constrained_intra=0 / bframes=13 / b_pyramid=2 / b_adapt=2 / b_bias=0 / direct=3 / weightb=1 / open_gop=0 / weightp=2 / keyint=250 / keyint_min=23 / scenecut=40 / intra_refresh=0 / rc_lookahead=60 / rc=2pass / mbtree=0 / bitrate=1705 / ratetol=1.0 / qcomp=0.60 / qpmin=0 / qpmax=69 / qpstep=4 / cplxblur=20.0 / qblur=0.5 / vbv_maxrate=50000 / vbv_bufsize=62500 / nal_hrd=none / filler=0 / ip_ratio=1.35 / pb_ratio=1.30 / aq=1:1.00
Default                                  : Yes
Forced                                   : No
Audio
ID                                       : 2
Format                                   : AC-3
Format/Info                              : Audio Coding 3
Mode extension                           : CM (complete main)
Format settings, Endianness              : Big
Codec ID                                 : A_AC3
Duration                                 : 1h 39mn
Bit rate mode                            : Constant
Bit rate                                 : 384 Kbps
Channel(s)                               : 6 channels
Channel positions                        : Front: L C R, Side: L R, LFE
Sampling rate                            : 48.0 KHz
Frame rate                               : 31.250 fps (1536 spf)
Compression mode                         : Lossy
Stream size                              : 273 MiB (18%)
Title                                    : DVO - Parovoz Production
Language                                 : Russian
Default                                  : Yes
Forced                                   : No
Menu
00:00:00.000                             : en:Chapter 1
00:07:15.750                             : en:Chapter 2
00:14:09.666                             : en:Chapter 3
00:23:17.750                             : en:Chapter 4
00:32:02.208                             : en:Chapter 5
00:43:22.083                             : en:Chapter 6
00:50:01.625                             : en:Chapter 7
00:58:01.833                             : en:Chapter 8
01:07:32.000                             : en:Chapter 9
01:13:58.791                             : en:Chapter 10
01:23:59.333                             : en:Chapter 11
01:30:35.791                             : en:Chapter 12
-
[Profile]  [PM] 
Display posts:    
Reply to topic

Current time is: 21-Jul 22:29

All times are UTC + 2



You cannot post new topics in this forum
You cannot reply to topics in this forum
You cannot edit your posts in this forum
You cannot delete your posts in this forum
You cannot vote in polls in this forum
You cannot attach files in this forum
You cannot download files in this forum