Перерождение / Restoration (Зак Уорд / Zack Ward) [2016, США, Ужасы, HDRip] VO (Петр Титов) + Original Eng

Reply to topic
 
Author
Message

Satyr ®

Gender: Unknown

Longevity: 11 years

Posts: 15401

Reputation: 55 [+] [-]

Satyr · Post 11-Sep-2016 01:25

[Quote] 

Перерождение / Restoration
Страна: США
Жанр: Ужасы
Год выпуска: 2016
Продолжительность: 01:31:34
Перевод: Одноголосый, закадровый (Петр Титов)
Cубтитры: нет
Оригинальная аудиодорожка: английский
Режиссер: Зак Уорд / Zack Ward
В ролях: Эмили О’Брайэн, Адриан Гаета, Зак Уорд, Сара Анн Шультс, Анна Харр
Описание: Молодая семейная пара Ребекка и Тодд переезжают в новый дом в пригороде. В ходе ремонта они обнаруживают в стене дневник, принадлежащий маленькой девочке, которая жила в этом доме ранее. В доме начинают проявятся необъяснимые явление, и чем больше новые хозяева узнают из дневника об истории этих мест, тем больше понимают, какое страшное зло поселилось рядом.
Сэмпл: https://www.sendspace.com/file/id8ldk
Качество видео: HDRip (исходник неизвестен)
Формат видео: AVI
Видео: Xvid 720x368, 23.976fp, 1 774 Kbps
Аудио: MP3, 44100 Hz, 320 Kbps
Аудио 2: Dolby AC3 48000Hz 6ch 384kbps (оригинал)

MediaInfo

General
Complete name : C:\скаченное\фильмы\Перерождение\Перерождение.avi
Format : AVI
Format/Info : Audio Video Interleave
File size : 1.59 GiB
Duration : 1h 31mn
Overall bit rate : 2 492 Kbps
Writing application : VirtualDubMod 1.5.10.2 (build 2540/release)
Writing library : VirtualDubMod build 2540/release
Video
ID : 0
Format : MPEG-4 Visual
Format profile : Advanced Simple@L5
Format settings, BVOP : 2
Format settings, QPel : No
Format settings, GMC : No warppoints
Format settings, Matrix : Default (H.263)
Muxing mode : Packed bitstream
Codec ID : XVID
Codec ID/Hint : XviD
Duration : 1h 31mn
Bit rate : 1 774 Kbps
Width : 720 pixels
Height : 368 pixels
Display aspect ratio : 1.957
Frame rate : 23.976 fps
Color space : YUV
Chroma subsampling : 4:2:0
Bit depth : 8 bits
Scan type : Progressive
Compression mode : Lossy
Bits/(Pixel*Frame) : 0.279
Stream size : 1.13 GiB (71%)
Writing library : XviD 66
Audio #1
ID : 1
Format : AC-3
Format/Info : Audio Coding 3
Mode extension : CM (complete main)
Format settings, Endianness : Big
Codec ID : 2000
Duration : 1h 31mn
Bit rate mode : Constant
Bit rate : 384 Kbps
Channel(s) : 6 channels
Channel positions : Front: L C R, Side: L R, LFE
Sampling rate : 48.0 KHz
Bit depth : 16 bits
Compression mode : Lossy
Stream size : 251 MiB (15%)
Alignment : Aligned on interleaves
Interleave, duration : 42 ms (1.00 video frame)
Interleave, preload duration : 512 ms
Audio #2
ID : 2
Format : MPEG Audio
Format version : Version 1
Format profile : Layer 3
Codec ID : 55
Codec ID/Hint : MP3
Duration : 1h 31mn
Bit rate mode : Constant
Bit rate : 320 Kbps
Channel(s) : 2 channels
Sampling rate : 44.1 KHz
Compression mode : Lossy
Stream size : 210 MiB (13%)
Alignment : Split accross interleaves
Interleave, duration : 42 ms (1.00 video frame)
Interleave, preload duration : 500 ms

Скриншот c названием фильма

Скриншоты

[Profile]  [PM] 
Display posts:    
Reply to topic

Current time is: 27-Sep 12:39

All times are UTC + 2



You cannot post new topics in this forum
You cannot reply to topics in this forum
You cannot edit your posts in this forum
You cannot delete your posts in this forum
You cannot vote in polls in this forum
You cannot attach files in this forum
You cannot download files in this forum