В активном поиске / How to Be Single (Кристиан Диттер / Christian Ditter) [2016, США, мелодрама, комедия, BDRip-AVC] Dub + Original + Sub (rus, eng)

Reply to topic
 
Author
Message

Satyr ®

Gender: Unknown

Longevity: 11 years

Posts: 15401

Reputation: 55 [+] [-]

Satyr · Post 11-Sep-2016 01:25

[Quote] 

В активном поиске / How to Be Single«Welcome to the party»- Страна: США
Жанр: мелодрама, комедия
Год выпуска: 2016
Продолжительность: 01:49:49
Перевод: Профессиональный (полное дублирование) (iTunes)
Оригинальная аудиодорожка: английский
Cубтитры: русские (форс., полные), английские (полные, SDH)
Навигация по главам: есть
Режиссер: Кристиан Диттер / Christian Ditter
В ролях: Дакота Джонсон, Ребел Уилсон, Элисон Бри, Лесли Манн, Николас Браун, Джейсон Манцукас, Дэймон Уайанс мл., Колин Жост, Джейк Лэси, Андерс Холм, Сара Рамос, Ник Бейтман, Мики Гуч мл., Ванесса Рубио, Зани Джонс Мбаис, Брент Морин, Кэй Кэннон, Джудит Лайтфут Кларк, Патрик Болл, Анна Эйлинсфелд
Описание: Устав от жизни со своим бойфрендом, Элис уходит от него, переезжает к старшей сестре Мэг, находит новую работу и обзаводится новой подругой Робин. Последняя оказывается страстной поклонницей ночных «отжигов» и пытается втянуть Элис в свою безумную жизнь, хотя та предпочитает чинные и продолжительные отношения пьяным знакомствам на вечеринках.

Качество видео: BDRip-AVC (исходник - BDRemux|How.To.Be.Single.2016.1080p.BluRay.REMUX.AVC.DTS-HD.MA.5.1-RARBG)
Формат видео: MKV
Видео: x264, 1056х440 (2.40:1), 23,976 fps, ~2065 kbps, 0.185 bit/pixel
Аудио 1: 48 kHz, AC3 Dolby Digital, 3/2 (L,C,R,l,r) + LFE ch, ~384 kbps [русский]
Аудио 2: 48 kHz, AC3 Dolby Digital, 3/2 (L,C,R,l,r) + LFE ch, ~384 kbps [английский]
Формат субтитров: softsub (SRT)

MediaInfo | x264 log

Format : Matroska
Format version : Version 4 / Version 2
File size : 2.17 GiB
Duration : 1h 49mn
Overall bit rate : 2 834 Kbps
Movie name : В активном поиске / How to Be Single (2016) :: AFM ::
Encoded date : UTC 2016-05-16 12:05:12
Writing application : mkvmerge v8.3.0 ('Over the Horizon') 32bit
Writing library : libebml v1.3.1 + libmatroska v1.4.2
Video
ID : 1
Format : AVC
Format/Info : Advanced Video Codec
Format profile : High@L4.1
Format settings, CABAC : Yes
Format settings, ReFrames : 11 frames
Codec ID : V_MPEG4/ISO/AVC
Duration : 1h 49mn
Bit rate : 2 065 Kbps
Width : 1 056 pixels
Height : 440 pixels
Display aspect ratio : 2.40:1
Frame rate mode : Constant
Frame rate : 23.976 fps
Color space : YUV
Chroma subsampling : 4:2:0
Bit depth : 8 bits
Scan type : Progressive
Bits/(Pixel*Frame) : 0.185
Stream size : 1.54 GiB (71%)
Title : BDRip by AFM [torrentsland.com.ua]
Writing library : x264 core 148 r2665+53 6629127 t_mod_Custom [8-bit@all X86_64]
Encoding settings : cabac=1 / ref=11 / deblock=1:-2:-2 / analyse=0x3:0x113 / me=umh / subme=11 / psy=1 / fade_compensate=0.00 / psy_rd=1.00:0.00 / mixed_ref=1 / me_range=32 / chroma_me=1 / trellis=2 / 8x8dct=1 / cqm=0 / deadzone=21,11 / fast_pskip=0 / chroma_qp_offset=-2 / threads=6 / lookahead_threads=1 / sliced_threads=0 / nr=0 / decimate=0 / interlaced=0 / bluray_compat=0 / constrained_intra=0 / fgo=0 / bframes=13 / b_pyramid=2 / b_adapt=2 / b_bias=0 / direct=1 / weightb=1 / open_gop=0 / weightp=2 / keyint=250 / keyint_min=23 / scenecut=40 / intra_refresh=0 / rc_lookahead=40 / rc=2pass / mbtree=0 / bitrate=2065 / ratetol=1.0 / qcomp=0.65 / qpmin=0:0:0 / qpmax=69:69:69 / qpstep=4 / cplxblur=20.0 / qblur=0.5 / vbv_maxrate=50000 / vbv_bufsize=62500 / nal_hrd=none / filler=0 / ip_ratio=1.35 / pb_ratio=1.30 / aq=1:0.90 / aq-sensitivity=10.00 / aq-factor=1.00:1.00:1.00 / aq2=0 / aq3=0 / zones=151277,157978,q=30
Language : English
Default : Yes
Forced : No
Audio #1
ID : 2
Format : AC-3
Format/Info : Audio Coding 3
Mode extension : CM (complete main)
Format settings, Endianness : Big
Codec ID : A_AC3
Duration : 1h 49mn
Bit rate mode : Constant
Bit rate : 384 Kbps
Channel(s) : 6 channels
Channel positions : Front: L C R, Side: L R, LFE
Sampling rate : 48.0 KHz
Compression mode : Lossy
Stream size : 302 MiB (14%)
Title : Dub, AC3 5.1 ~384 kbps
Language : Russian
Default : Yes
Forced : No
Audio #2
ID : 3
Format : AC-3
Format/Info : Audio Coding 3
Mode extension : CM (complete main)
Format settings, Endianness : Big
Codec ID : A_AC3
Duration : 1h 49mn
Bit rate mode : Constant
Bit rate : 384 Kbps
Channel(s) : 6 channels
Channel positions : Front: L C R, Side: L R, LFE
Sampling rate : 48.0 KHz
Compression mode : Lossy
Stream size : 302 MiB (14%)
Title : Original, AC3 5.1 ~384 kbps
Language : English
Default : No
Forced : No
Text #1
ID : 4
Format : UTF-8
Codec ID : S_TEXT/UTF8
Codec ID/Info : UTF-8 Plain Text
Title : forced
Language : Russian
Default : Yes
Forced : No
Text #2
ID : 5
Format : UTF-8
Codec ID : S_TEXT/UTF8
Codec ID/Info : UTF-8 Plain Text
Title : full
Language : Russian
Default : No
Forced : No
Text #3
ID : 6
Format : UTF-8
Codec ID : S_TEXT/UTF8
Codec ID/Info : UTF-8 Plain Text
Title : full
Language : English
Default : No
Forced : No
Text #4
ID : 7
Format : UTF-8
Codec ID : S_TEXT/UTF8
Codec ID/Info : UTF-8 Plain Text
Title : full - SDH
Language : English
Default : No
Forced : No
Menu
00:00:00.000 : en:01
00:10:18.493 : en:02
00:20:34.775 : en:03
00:31:17.751 : en:04
00:41:28.194 : en:05
00:52:06.832 : en:06
01:03:33.560 : en:07
01:16:21.160 : en:08
01:24:43.036 : en:09
01:32:11.818 : en:10
01:43:26.826 : en:11

x264

x264 [info]: frame I:1641 Avg QP:16.66 size: 73020
x264 [info]: frame P:35798 Avg QP:20.07 size: 21950
x264 [info]: frame B:120539 Avg QP:21.69 size: 6590
x264 [info]: consecutive B-frames: 3.0% 3.0% 8.8% 21.0% 19.4% 37.2% 4.2% 1.0% 0.7% 0.5% 0.4% 0.3% 0.2% 0.2%
x264 [info]: mb I I16..4: 2.4% 78.5% 19.2%
x264 [info]: mb P I16..4: 0.4% 6.9% 1.3% P16..4: 33.7% 40.3% 13.5% 0.0% 0.0% skip: 3.8%
x264 [info]: mb B I16..4: 0.0% 0.5% 0.1% B16..8: 38.7% 21.3% 3.4% direct: 4.0% skip:32.0% L0:42.9% L1:46.1% BI:10.9%
x264 [info]: 8x8 transform intra:79.6% inter:62.6%
x264 [info]: coded y,uvDC,uvAC intra: 92.9% 92.3% 78.4% inter: 22.2% 23.1% 11.4%
x264 [info]: i16 v,h,dc,p: 15% 13% 3% 68%
x264 [info]: i8 v,h,dc,ddl,ddr,vr,hd,vl,hu: 12% 6% 5% 10% 15% 15% 13% 13% 11%
x264 [info]: i4 v,h,dc,ddl,ddr,vr,hd,vl,hu: 14% 7% 3% 9% 15% 15% 13% 12% 11%
x264 [info]: i8c dc,h,v,p: 40% 19% 20% 21%
x264 [info]: Weighted P-Frames: Y:97.1% UV:1.7%
x264 [info]: ref P L0: 47.8% 10.6% 17.3% 6.0% 5.1% 3.5% 3.2% 1.7% 1.7% 1.4% 1.4% 0.3% 0.0%
x264 [info]: ref B L0: 74.7% 11.3% 5.3% 2.7% 1.9% 1.5% 1.2% 0.7% 0.4% 0.2%
x264 [info]: ref B L1: 92.7% 7.3%
x264 [info]: kb/s:2063.93

Скриншоты

с названием

[Profile]  [PM] 
Display posts:    
Reply to topic

Current time is: 24-Jan 07:17

All times are UTC + 2



You cannot post new topics in this forum
You cannot reply to topics in this forum
You cannot edit your posts in this forum
You cannot delete your posts in this forum
You cannot vote in polls in this forum
You cannot attach files in this forum
You cannot download files in this forum