Руфус / Rufus (Сэвидж Стив Холланд / Savage Steve Holland) [2016, США, комедия, семейный, TVRip] MVO (студия Кипарис)

Reply to topic
 
Author
Message

Satyr ®

Online

Gender: Unknown

Longevity: 11 years

Posts: 15401

Reputation: 55 [+] [-]

Satyr · Post 11-Sep-2016 01:26

[Quote] 

Руфус / Rufus
Страна: США
Жанр: комедия, семейный
Год выпуска: 2016
Продолжительность: 00:43:07
Перевод: Профессиональный (многоголосый закадровый) студия Кипарис
Cубтитры: нет
Режиссер: Сэвидж Стив Холланд / Savage Steve Holland
В ролях: Джейс Норман, Дэвис Кливлэнд, Хейли Тджу, Ноэль Йохансен, Чад Райли, Лиза Дурупт, Пол Белсито, Дариен Провост
Описание: Мэнни переехал в новую школу, он хочет, чтобы у него было много друзей. Его собака Руфус находит таинственный амулет, который Мэнни надевает Руфусу на шею. Вдруг Руфус превращается в мальчика! Мэнни приводит Руфуса в школу. Из-за своих собачьих привычек Руфус становится самым популярным учеником
Сэмпл: http://multi-up.com/1100911
Качество видео: TVRip
Формат видео: AVI
Видео: XviD, 720х400 пикс, 2255 Кбит/сек, 25,0 кадр/сек, 0.313 Бит/(Пиксели*Кадры)
Аудио: MP3, 48,0 КГц, 160 Кбит/сек, 2 канала

MediaInfo

Общее
Полное имя : C:\фильмы\02 возможно для раздачи\Руфус\Руфус.avi
Формат : AVI
Формат/Информация : Audio Video Interleave
Размер файла : 748 Мбайт
Продолжительность : 43 м.
Общий поток : 2425 Кбит/сек
Видео
Идентификатор : 0
Формат : MPEG-4 Visual
Профиль формата : Advanced Simple@L4
Параметр BVOP формата : Нет
Параметр QPel формата : Нет
Параметр GMC формата : Без точки перехода
Параметр матрицы формата : Default (H.263)
Идентификатор кодека : XVID
Идентификатор кодека/Подсказка : XviD
Продолжительность : 43 м.
Битрейт : 2255 Кбит/сек
Ширина : 720 пикселей
Высота : 400 пикселей
Соотношение сторон : 16:9
Частота кадров : 25,000 кадров/сек
Цветовое пространство : YUV
Субдискретизация насыщенности : 4:2:0
Битовая глубина : 8 бит
Тип развёртки : Прогрессивная
Метод сжатия : С потерями
Бит/(Пиксели*Кадры) : 0.313
Размер потока : 695 Мбайт (93%)
Библиотека кодирования : Lavc53.42.0
Аудио
Идентификатор : 1
Формат : MPEG Audio
Версия формата : Version 1
Профиль формата : Layer 3
Идентификатор кодека : 55
Идентификатор кодека/Подсказка : MP3
Продолжительность : 43 м.
Продолжительность оригинала : 43 м.
Вид битрейта : Постоянный
Битрейт : 160 Кбит/сек
Каналы : 2 канала
Частота : 48,0 КГц
Метод сжатия : С потерями
Размер потока : 49,3 Мбайт (7%)
Выравнивание : Соединение по промежуткам
Продолжительность промежутка : 40 мс. (1,00 видеокадр)

Скриншот c названием фильма

Скриншоты


предыдущие или аналогичные раздачи

пока нет;
аналогичные фильмы, где мальчик превращается в собаку:
Лохматая собака (лохматый прокурор)
Лохматый папа
Лохматый пёс и Возвращение лохматой собаки
Мой братик - собачка
и другие.

источник рипа

:
телеканал Nickelodeon

форум фильмы о собаках, волках и прочих псовых

http://torrentsland.com.ua/forum/viewtopic.php?t=1144862
[Profile]  [PM] 
Display posts:    
Reply to topic

Current time is: 26-Sep 03:41

All times are UTC + 2



You cannot post new topics in this forum
You cannot reply to topics in this forum
You cannot edit your posts in this forum
You cannot delete your posts in this forum
You cannot vote in polls in this forum
You cannot attach files in this forum
You cannot download files in this forum