Дедушка легкого поведения / Dirty Grandpa (Дэн Мазер / Dan Mazer) [2016, США, Комедия, BDRip] [Расширенная версия / Unrated Cut] Dub (iTunes) + Sub

Reply to topic
 
Author
Message

Satyr ®

Online

Gender: Unknown

Longevity: 11 years

Posts: 15401

Reputation: 55 [+] [-]

Satyr · Post 11-Sep-2016 01:26

[Quote] 

Дедушка легкого поведения / Dirty Grandpa- Год выхода: 2016
Выпущено: США / Lionsgate, BillBlock Media
Жанр: комедия
Продолжительность: 01:49:34
Перевод: Профессиональный (полное дублирование)
Cубтитры: Русские (форсированные на эпизоды расширенной версии) (внешние srt*)-Режиссер:
Дэн Мазер / Dan Mazer-В ролях:
Роберт Де Ниро, Зак Эфрон, Зои Дойч, Обри Плаза, Джейсон Манцукас, Дермот Малруни, Джулианна Хаф, Джеффри Бауэр-Чепман, Брэндон Майкал Смит, Джейк Пикинг, Майкл Хадсон, Адам Палли, Мо Коллинз, Генри Жебровский, Катрин Дайер, Дина Дилл, Лэйн Кэрлок, Кристофер Сеттикейс, Эрик Гойнс, Гэвин Мунн-О фильме:
Джейсон, покладистый правильный парень, накануне свадьбы вляпывается в увеселительную поездку к морю со своим дедом, отставным генералом с легким нравом, бурной фантазией и вполне определенными потребностями… И, похоже, дедские каникулы изменят жизнь Джейсона навсегда!-Релиз групп | | IMDB | КиноПоиск| Сэмпл |-Качество: BDRip [Dirty Grandpa 2016 Unrated 1080p Blu-ray Remux AVC DTS-HD MA 5.1 - KRaLiMaRKo]
Формат: AVI
Видео: 720x304 (2.37:1), 23.976 fps, XviD build 67 ~1510 kbps avg, 0.29 bit/pixel
Аудио: 48 kHz, AC3 Dolby Digital, 3/2 (L,C,R,l,r) + LFE ch, ~384.00 kbps avg - iTunes Russia-

Скриншоты

-

MediaInfo

General
Complete name                            : D:\Dedushka_legkogo_povedeniya_2016_BDRip_[Unrated_Cut]_iT_by_Dalemake.avi
Format                                   : AVI
Format/Info                              : Audio Video Interleave
File size                                : 1.46 GiB
Duration                                 : 1h 49mn
Overall bit rate                         : 1 904 Kbps
Writing application                      : VirtualDubMod 1.5.10.3 | www.virtualdub-fr.org || (build 2550/release)
Writing library                          : VirtualDubMod build 2550/release
Video
ID                                       : 0
Format                                   : MPEG-4 Visual
Format profile                           : Advanced Simple@L5
Format settings, BVOP                    : 1
Format settings, QPel                    : No
Format settings, GMC                     : No warppoints
Format settings, Matrix                  : Custom
Codec ID                                 : XVID
Codec ID/Hint                            : XviD
Duration                                 : 1h 49mn
Bit rate                                 : 1 511 Kbps
Width                                    : 720 pixels
Height                                   : 304 pixels
Display aspect ratio                     : 2.35:1
Frame rate                               : 23.976 (23976/1000) fps
Color space                              : YUV
Chroma subsampling                       : 4:2:0
Bit depth                                : 8 bits
Scan type                                : Progressive
Compression mode                         : Lossy
Bits/(Pixel*Frame)                       : 0.288
Stream size                              : 1.16 GiB (79%)
Writing library                          : XviD 67
Audio
ID                                       : 1
Format                                   : AC-3
Format/Info                              : Audio Coding 3
Mode extension                           : CM (complete main)
Format settings, Endianness              : Big
Codec ID                                 : 2000
Duration                                 : 1h 49mn
Bit rate mode                            : Constant
Bit rate                                 : 384 Kbps
Channel(s)                               : 6 channels
Channel positions                        : Front: L C R, Side: L R, LFE
Sampling rate                            : 48.0 KHz
Frame rate                               : 31.250 fps (1536 spf)
Compression mode                         : Lossy
Stream size                              : 301 MiB (20%)
Alignment                                : Split accross interleaves
Interleave, duration                     : 42 ms (1.00 video frame)
Interleave, preload duration             : 500 ms
-
[Profile]  [PM] 
Display posts:    
Reply to topic

Current time is: 26-Sep 10:26

All times are UTC + 2



You cannot post new topics in this forum
You cannot reply to topics in this forum
You cannot edit your posts in this forum
You cannot delete your posts in this forum
You cannot vote in polls in this forum
You cannot attach files in this forum
You cannot download files in this forum