Я есть гнев / I Am Wrath (Чак Расселл / Chuck Russell) [2016, США, Боевик, триллер, драма, криминал, BDRip] DVO

Reply to topic
 
Author
Message

Satyr ®

Gender: Unknown

Longevity: 11 years

Posts: 15401

Reputation: 55 [+] [-]

Satyr · Post 11-Sep-2016 01:26

[Quote] 

Я есть гнев / I Am Wrath- -Страна: США
Жанр: Боевик, триллер, драма, криминал
Продолжительность: 01:30:34
Год выпуска: 2016-Перевод: Любительский (двухголосый, закадровый)
Субтитры: нет
Режиссёр: Чак Расселл / Chuck Russell-В ролях:
Джон Траволта (Stanley Hill), Аманда Шулл (Abbie), Ребекка Де Морнэй (Vivian Hill), Кристофер Мелони (Dennis), Дорис Моргадо (Rosa), Сэм Трэммелл (Det. Gibson), Луис Да Силва мл. (Charley), Патрик Ст. Эсприт (Governor Meserve), Пол Слоун (Lemi K), Дэвид Хатчинсон (Crew #1)-Описание:
История человека, чью жену убили и который, отчаявшись дождаться каких-то действий со стороны полиции, решает сам найти преступника и покарать его.-Релиз групп All Films и RG torrentsland.com.ua-Сэмпл: https://www.sendspace.com/file/q1t5dw-Качество: BDRip - Исходник: BDRemux 1080p (Кинозал)
Формат: AVI
Видео: 688x288 (2.39:1), 23.976 fps, XviD build 73 ~1010 kbps avg, 0.21 bit/pixel
Аудио: 48 kHz, MPEG Layer 3, 2 ch, ~128.00 kbps avg-

Отчёт MediaInfo

General
Complete name : C:\Users\Максим\Desktop\I.Am.Wrath.2016.BDRip.polkera.avi
Format : AVI
Format/Info : Audio Video Interleave
File size : 744 MiB
Duration : 1h 30mn
Overall bit rate : 1 148 Kbps
Writing application : VirtualDubMod 1.5.10.3 | www.virtualdub-fr.org || (build 2550/release)
Writing library : VirtualDubMod build 2550/release
Video
Format : MPEG-4 Visual
Format profile : Streaming Video@L1
Format settings, BVOP : Yes
Format settings, QPel : No
Format settings, GMC : No warppoints
Format settings, Matrix : Custom
Codec ID : XVID
Codec ID/Hint : XviD
Duration : 1h 30mn
Bit rate : 1 011 Kbps
Width : 688 pixels
Height : 288 pixels
Display aspect ratio : 2.35
Frame rate : 23.976 fps
Resolution : 24 bits
Colorimetry : 4:2:0
Scan type : Progressive
Bits/(Pixel*Frame) : 0.213
Stream size : 655 MiB (88%)
Writing library : XviD 73
Audio
Format : MPEG Audio
Format version : Version 1
Format profile : Layer 3
Codec ID : 55
Codec ID/Hint : MP3
Duration : 1h 30mn
Bit rate mode : Constant
Bit rate : 128 Kbps
Channel(s) : 2 channels
Sampling rate : 48.0 KHz
Resolution : 16 bits
Stream size : 82.9 MiB (11%)
Alignment : Aligned on interleaves
Interleave, duration : 42 ms (1.00 video frame)
Interleave, preload duration : 504 ms
Writing library : LAME3.99r
Encoding settings : -m s -V 4 -q 2 -lowpass 17 -b 128

-

Скриншоты

- |
[Profile]  [PM] 
Display posts:    
Reply to topic

Current time is: 20-Sep 18:46

All times are UTC + 2



You cannot post new topics in this forum
You cannot reply to topics in this forum
You cannot edit your posts in this forum
You cannot delete your posts in this forum
You cannot vote in polls in this forum
You cannot attach files in this forum
You cannot download files in this forum