Дедушка легкого поведения / Dirty Grandpa (Дэн Мазер / Dan Mazer) [2016, США, комедия, WEB-DLRip] Dub

Reply to topic
 
Author
Message

Satyr ®

Gender: Unknown

Longevity: 11 years

Posts: 15401

Reputation: 55 [+] [-]

Satyr · Post 11-Sep-2016 01:26

[Quote] 

Дедушка легкого поведения / Dirty Grandpa«This is Jason. He's a little worried about his grandpa» Страна: США / USA
Жанр: комедия
Год выпуска: 2016
Продолжительность: 01:41:52
Перевод: Профессиональный (дублированный) iTunes
Cубтитры: нет
Оригинальная аудиодорожка: нет
Режиссер: Дэн Мазер / Dan Mazer
В ролях: Роберт Де Ниро, Зак Эфрон, Зои Дойч, Обри Плаза, Джейсон Манцукас, Дермот Малруни, Джулианна Хаф, Джеффри Бауэр-Чепман, Брэндон Майкал Смит, Джейк Пикинг, Майкл Хадсон, Адам Палли, Мо Коллинз, Генри Жебровский, Катрин Дайер, Дина Дилл, Лэйн Кэрлок, Кристофер Сеттикейс, Эрик Гойнс, Гэвин Мунн
Описание: Джейсон, покладистый правильный парень, накануне свадьбы вляпывается в увеселительную поездку к морю со своим дедом, отставным генералом с легким нравом, бурной фантазией и вполне определенными потребностями… И, похоже, дедские каникулы изменят жизнь Джейсона навсегда!
Группа желает всем приятного просмотра!
Качество видео: WEB-DLRip
Формат видео: AVI
Видео: 720x304 (2.37:1), 25 fps, XviD build 65 ~1674 kbps avg, 0.31 bit/pixel
Аудио: 48 kHz, AC3 Dolby Digital, 3/2 (L,C,R,l,r) + LFE ch, ~384 kbps

MediaInfo

General
Complete name : D:\Торренты\Dirty Grandpa_Drek_Rutracker.org.avi
Format : AVI
Format/Info : Audio Video Interleave
File size : 1.47 GiB
Duration : 1h 41mn
Overall bit rate : 2 069 Kbps
Writing application : VirtualDubMod 1.5.10.2 (build 2540/release)
Writing library : VirtualDubMod build 2540/release
Video
ID : 0
Format : MPEG-4 Visual
Format profile : Advanced Simple@L5
Format settings, BVOP : 1
Format settings, QPel : No
Format settings, GMC : No warppoints
Format settings, Matrix : Custom
Codec ID : XVID
Codec ID/Hint : XviD
Duration : 1h 41mn
Bit rate : 1 675 Kbps
Width : 720 pixels
Height : 304 pixels
Display aspect ratio : 2.35:1
Frame rate : 25.000 fps
Color space : YUV
Chroma subsampling : 4:2:0
Bit depth : 8 bits
Scan type : Progressive
Compression mode : Lossy
Bits/(Pixel*Frame) : 0.306
Stream size : 1.19 GiB (81%)
Writing library : XviD 65
Audio
ID : 1
Format : AC-3
Format/Info : Audio Coding 3
Mode extension : CM (complete main)
Format settings, Endianness : Big
Codec ID : 2000
Duration : 1h 41mn
Bit rate mode : Constant
Bit rate : 384 Kbps
Channel(s) : 6 channels
Channel positions : Front: L C R, Side: L R, LFE
Sampling rate : 48.0 KHz
Frame rate : 31.250 fps (1536 spf)
Compression mode : Lossy
Stream size : 280 MiB (19%)
Alignment : Split accross interleaves
Interleave, duration : 40 ms (1.00 video frame)
Interleave, preload duratio : 500 ms

Скриншоты

[Profile]  [PM] 
Display posts:    
Reply to topic

Current time is: 19-Sep 11:07

All times are UTC + 2



You cannot post new topics in this forum
You cannot reply to topics in this forum
You cannot edit your posts in this forum
You cannot delete your posts in this forum
You cannot vote in polls in this forum
You cannot attach files in this forum
You cannot download files in this forum