Танго свободы / Tango per la liberta\' (Альберто Негрин / Alberto Negrin) [2016, Италия, драма, исторический, HDTVRip-AVC] VO (maksciganov)

Reply to topic
 
Author
Message

Satyr ®

Gender: Unknown

Longevity: 11 years

Posts: 15401

Reputation: 55 [+] [-]

Satyr · Post 11-Sep-2016 01:26

[Quote] 

Танго свободы / Tango per la liberta' Страна: Италия.
Жанр: драма, исторический
Год выпуска: 2016
Продолжительность: 2 х ~100 мин.-Перевод: Одноголосый (закадровый) [maksciganov] по тексту (ladySpais)
Cубтитры: нет
Режиссёр: Альберто Негрин /Alberto Negrin-В ролях: Алессандро Прециози (Alessandro Preziosi) Росио Муньос(Rocío Muñoz Morales), Анна Валле (Anna Valle), Джоржио Маркези (Giorgio Marchesi), Симоне Гандольфо (Simone Gandolfo), Роберто Аккорнеро (Roberto Accornero), Артуро Ди Туллио (Arturo Di Tullio), Франко Кастеллано (Franco Castellano) и др.-Описание:
Аргентина, 1976. Вице-консул посольства Италии - Марко Феррери, готовится к повышению по службе. Несмотря на тяжелый период в прошлом, сейчас его жизнь складывается довольно успешно: он собирается к отъезду в Голландию, рядом с ним друзья и женщина, которая его любит. Однако неожиданные события заставляют его на время забыть о своих планах. В Аргентине происходит государственный переворот, и к власти приходит военная хунта. Под маской благоденствия страну охватывает хаос. Иностранцы, диссиденты и просто неугодившие новому порядку люди начинают бесследно пропадать. Исключением не становятся даже признанные и любимые публикой личности - у знаменитой итало-аргентинской певицы Анны Росси Рибейро исчезает сестра. Перед Марко возникает трудный выбор: последовать своим личным интересам и уехать из страны или с риском для собственной жизни поддержать своих сограждан и помочь им спастись?-Доп. информация: Фильм основан на реальных событиях и снят по книге Энрико Каламаи «Никакого политического убежища». Энрико Каламаи –итальянский дипломат. Его называют «Шиндлером Буэнос-Айреса», поскольку этот человек в 70-х годах прошлого века служил вице-консулом в Аргентине
и спас множество людей от преследования со стороны военного режима, который в те годы установился в стране. За время хунты физически было уничтожено 10 тысяч человек, 30 тысяч исчезли бесследно, и ещё 60 тысяч по политическим мотивам были подвергнуты длительным срокам заключения, пыткам и насилию.

Качество видео: HDTVRip
Формат видео: MP4
Видео: AVC, 1024x576, 25.000 fps, 1265 Kbps
Аудио: AAC, 48.0 KHz, 2/0 (L,R) ch, ~192 kbps kbps -Примечание: Видео второй части имеет дефект на отметке 00.40.31-00.40.38. Без дефектов, видео исходника на просторах интернета нет.

MediaInfo

General
Complete name : Tango per la liberta_VO maksciganov\Tango per la liberta_2_VO.maksciganov.mp4
Format : MPEG-4
Format profile : Base Media
Codec ID : isom
File size : 1 008 MiB
Duration : 1h 36mn
Overall bit rate : 1 460 Kbps
Encoded date : UTC 2016-04-25 13:55:00
Tagged date : UTC 2016-04-25 13:55:00
Video
ID : 1
Format : AVC
Format/Info : Advanced Video Codec
Format profile : High@L3.1
Format settings, CABAC : Yes
Format settings, ReFrames : 4 frames
Format settings, GOP : M=4, N=25
Codec ID : avc1
Codec ID/Info : Advanced Video Coding
Duration : 1h 36mn
Bit rate mode : Variable
Bit rate : 1 265 Kbps
Maximum bit rate : 6 106 Kbps
Width : 1 024 pixels
Height : 576 pixels
Display aspect ratio : 16:9
Frame rate mode : Constant
Frame rate : 25.000 fps
Color space : YUV
Chroma subsampling : 4:2:0
Bit depth : 8 bits
Scan type : Progressive
Bits/(Pixel*Frame) : 0.086
Stream size : 872 MiB (87%)
Writing library : x264 core 142
Encoding settings : cabac=1 / ref=3 / deblock=1:0:0 / analyse=0x3:0x113 / me=hex / subme=7 / psy=1 / psy_rd=1.00:0.00 / mixed_ref=1 / me_range=16 / chroma_me=1 / trellis=1 / 8x8dct=1 / cqm=0 / deadzone=21,11 / fast_pskip=1 / chroma_qp_offset=-2 / threads=4 / lookahead_threads=1 / sliced_threads=0 / nr=0 / decimate=1 / interlaced=0 / bluray_compat=0 / constrained_intra=0 / bframes=3 / b_pyramid=2 / b_adapt=1 / b_bias=0 / direct=1 / weightb=1 / open_gop=0 / weightp=2 / keyint=25 / keyint_min=2 / scenecut=40 / intra_refresh=0 / rc_lookahead=25 / rc=2pass / mbtree=1 / bitrate=1265 / ratetol=1.0 / qcomp=0.60 / qpmin=0 / qpmax=69 / qpstep=4 / cplxblur=20.0 / qblur=0.5 / ip_ratio=1.40 / aq=1:1.00
Tagged date : UTC 2016-04-25 13:55:33
Audio
ID : 2
Format : AAC
Format/Info : Advanced Audio Codec
Format profile : LC
Codec ID : 40
Duration : 1h 36mn
Bit rate mode : Variable
Bit rate : 192 Kbps
Maximum bit rate : 201 Kbps
Channel(s) : 2 channels
Channel positions : Front: L R
Sampling rate : 48.0 KHz
Compression mode : Lossy
Stream size : 133 MiB (13%)
Language : Russian
Encoded date : UTC 2016-04-25 13:55:26
Tagged date : UTC 2016-04-25 13:55:33-General
Complete name : \Tango per la liberta_1_VO.maksciganov.mp4
Format : MPEG-4
Format profile : Base Media
Codec ID : isom
File size : 1 002 MiB
Duration : 1h 35mn
Overall bit rate : 1 460 Kbps
Encoded date : UTC 2016-04-25 13:27:54
Tagged date : UTC 2016-04-25 13:27:54
Video
ID : 1
Format : AVC
Format/Info : Advanced Video Codec
Format profile : High@L3.1
Format settings, CABAC : Yes
Format settings, ReFrames : 4 frames
Format settings, GOP : M=4, N=25
Codec ID : avc1
Codec ID/Info : Advanced Video Coding
Duration : 1h 35mn
Bit rate mode : Variable
Bit rate : 1 265 Kbps
Maximum bit rate : 5 024 Kbps
Width : 1 024 pixels
Height : 576 pixels
Display aspect ratio : 16:9
Frame rate mode : Constant
Frame rate : 25.000 fps
Color space : YUV
Chroma subsampling : 4:2:0
Bit depth : 8 bits
Scan type : Progressive
Bits/(Pixel*Frame) : 0.086
Stream size : 867 MiB (87%)
Writing library : x264 core 142
Encoding settings : cabac=1 / ref=3 / deblock=1:0:0 / analyse=0x3:0x113 / me=hex / subme=7 / psy=1 / psy_rd=1.00:0.00 / mixed_ref=1 / me_range=16 / chroma_me=1 / trellis=1 / 8x8dct=1 / cqm=0 / deadzone=21,11 / fast_pskip=1 / chroma_qp_offset=-2 / threads=4 / lookahead_threads=1 / sliced_threads=0 / nr=0 / decimate=1 / interlaced=0 / bluray_compat=0 / constrained_intra=0 / bframes=3 / b_pyramid=2 / b_adapt=1 / b_bias=0 / direct=1 / weightb=1 / open_gop=0 / weightp=2 / keyint=25 / keyint_min=2 / scenecut=40 / intra_refresh=0 / rc_lookahead=25 / rc=2pass / mbtree=1 / bitrate=1265 / ratetol=1.0 / qcomp=0.60 / qpmin=0 / qpmax=69 / qpstep=4 / cplxblur=20.0 / qblur=0.5 / ip_ratio=1.40 / aq=1:1.00
Tagged date : UTC 2016-04-25 13:28:25
Audio
ID : 2
Format : AAC
Format/Info : Advanced Audio Codec
Format profile : LC
Codec ID : 40
Duration : 1h 35mn
Bit rate mode : Variable
Bit rate : 192 Kbps
Maximum bit rate : 198 Kbps
Channel(s) : 2 channels
Channel positions : Front: L R
Sampling rate : 48.0 KHz
Compression mode : Lossy
Stream size : 132 MiB (13%)
Language : Russian
Encoded date : UTC 2016-04-25 13:28:20
Tagged date : UTC 2016-04-25 13:28:25

Скриншот c названием фильма

Скриншоты

[Profile]  [PM] 
Display posts:    
Reply to topic

Current time is: 01-Oct 07:19

All times are UTC + 2



You cannot post new topics in this forum
You cannot reply to topics in this forum
You cannot edit your posts in this forum
You cannot delete your posts in this forum
You cannot vote in polls in this forum
You cannot attach files in this forum
You cannot download files in this forum