Дом игрушек Пи-ви / Большое путешествие Пи-Ви / Pee-Wee\'s big holiday (Джон Ли / John Lee) [2016, США, комедия, WEB-DLRip] + Sub Rus + Original Eng

Reply to topic
 
Author
Message

Satyr ®

Gender: Unknown

Longevity: 11 years

Posts: 15401

Reputation: 55 [+] [-]

Satyr · Post 11-Sep-2016 01:26

[Quote] 

Большое путешествие Пи-Ви / Pee-Wee's big holiday
Страна: США
Жанр: комедия
Год выпуска: 2016
Продолжительность: 01:29:07
Перевод: Субтитры (М.Васильев)
Cубтитры: русские
Оригинальная аудиодорожка: английский
Режиссер: Джон Ли / John Lee
В ролях: Пол Рубенс, Джо Манганьелло, Джессика Поли, Стефани Беатриз, Патрик Эган
Описание: Пи-Ви - маленький человек, живущий в маленьком городке и весьма довольный своей жизнью. Однако, серия неожиданных событий вынуждает Пи-Ви покинуть свою малую родину и отправиться в грандиозное путешествие по стране. Он встретит настоящих грабителей банков, познакомится с дружелюбным фермером и его девятью сексуально озабоченными дочерьми, а еще побывает в общине амишей...
Доп. информация: Фильм является частью франшизы о приключениях Пи-Ви.
Предыдущие части:
Большое приключение Пи-Ви
Коротышка - большая шишка
Пи-Ви - персонаж, придуманный актером и писателем Полом Рубенсом. Маленький человечек с незамутненным сознанием ребенка полюбился публике. После двух полнометражек (обе - лидеры проката) и сериала на канале CBS (4 номинации на Эмми в категории "лучший ситком"), Рубенс стал одним из самых высокооплачиваемых актеров в США. Но после серии скандалов (подробности ищем в википедии), актер ушел в тень и на какое-то время оставил профессию. В начале 21 века он триумфально вернулся. Его пьеса "Пи-Ви на Бродвее" 3 сезона шла на аншлагах в Нью Йорке. В 2015 было обьявлено, что сервис Netflix подписал с Рубенсом контракт на производство новой серии фильмов о приключениях Пи-Ви.
"Большое путешествие" было тепло встречено критиками и зрителями.
Юмор Рубенса - это смесь абсурда, гротеска, пародии и физической комедии в "мультяшной" стилистике. И очень много игры слов и каламбуров.
Убедительная просьба ознакомиться с трейлером, чтобы знать, что вас ожидает (доступен на кинопоиске)
Сэмпл
КИНОПОИСК
IMDB

альтернативный постер

Качество видео: WEB-DLRip
Формат видео: AVI
Видео: 2021 Kbps, 720x384 (1.85:1), 23 976 fps, XviD
Аудио: 192 Kbps, 48.0 KHz, 16 bits, 2 ch, AC 3
Формат субтитров: softsub (SRT)

MediaInfo

General
Complete name : C:\Users\master\Desktop\пиви\Pee-Wees.Big.avi
Format : AVI
Format/Info : Audio Video Interleave
Format profile : OpenDML
Format settings : rec
File size : 1.38 GiB
Duration : 1h 29mn
Overall bit rate : 2 219 Kbps
Writing application : AVI-Mux GUI 1.17.8.3, Feb 16 201019:42:50
Video
ID : 0
Format : MPEG-4 Visual
Format profile : Advanced Simple@L5
Format settings, BVOP : 2
Format settings, QPel : No
Format settings, GMC : No warppoints
Format settings, Matrix : Default (H.263)
Codec ID : XVID
Codec ID/Hint : XviD
Duration : 1h 29mn
Bit rate : 2 021 Kbps
Width : 720 pixels
Height : 384 pixels
Display aspect ratio : 1.85:1
Frame rate : 23.976 fps
Color space : YUV
Chroma subsampling : 4:2:0
Bit depth : 8 bits
Scan type : Progressive
Compression mode : Lossy
Bits/(Pixel*Frame) : 0.305
Stream size : 1.26 GiB (91%)
Writing library : XviD 66
Audio
ID : 1
Format : AC-3
Format/Info : Audio Coding 3
Mode extension : CM (complete main)
Format settings, Endianness : Big
Codec ID : 2000
Duration : 1h 29mn
Bit rate mode : Constant
Bit rate : 192 Kbps
Channel(s) : 2 channels
Channel positions : Front: L R
Sampling rate : 48.0 KHz
Bit depth : 16 bits
Compression mode : Lossy
Stream size : 122 MiB (9%)
Alignment : Aligned on interleaves
Interleave, duration : 64 ms (1.53 video frames)
Interleave, preload duration : 192 ms
Title : ac3

Скриншот c названием фильма

Скриншоты





Титры

1
00:01:54,900 --> 00:01:57,945
Как жаль, что мы
должны расстаться.
2
00:01:58,029 --> 00:02:02,325
Было так приятно
познакомиться с тобой, Пи-Ви.
3
00:02:03,368 --> 00:02:05,911
Земля - замечательная планета.
4
00:02:06,830 --> 00:02:10,166
Искусство, музыка, пицца.
5
00:02:11,459 --> 00:02:14,128
Ты быстро освоила
наши обычаи.
6
00:02:14,212 --> 00:02:16,464
Ты - хороший учитель.
7
00:02:17,550 --> 00:02:20,386
Эти 2 недели
были замечательными.
8
00:02:20,468 --> 00:02:22,928
Если бы я могла остаться.
9
00:02:24,597 --> 00:02:25,724
Если бы...
10
00:02:26,432 --> 00:02:29,686
Полетим со мной
на мою планету.
11
00:02:29,768 --> 00:02:31,770
Познакомишься
с моей семьей.
12
00:02:32,270 --> 00:02:34,606
Будем жить вместе.
13
00:02:34,690 --> 00:02:36,024
Не могу.
14
00:02:36,107 --> 00:02:39,277
Я должен остаться на Земле...
15
00:02:39,362 --> 00:02:42,574
Я буду скучать
по тебе.
16
00:02:42,657 --> 00:02:46,994
Не забывай меня, Пи-Ви.
17
00:02:47,078 --> 00:02:50,122
Всегда буду
помнить тебя.
18
00:02:50,790 --> 00:02:52,500
Смотри.
19
00:02:52,584 --> 00:02:54,836
Браслеты дружбы.
20
00:02:57,338 --> 00:03:00,299
Какая красота.
21
00:03:00,383 --> 00:03:02,218
Давай неденем их.
22
00:03:13,606 --> 00:03:15,482
Вот и все.
23
00:03:15,565 --> 00:03:18,359
Арриведерчи, правильно?
24
00:03:18,984 --> 00:03:19,985
Правильно.
25
00:03:20,737 --> 00:03:23,947
Арриведерчи, Пи-Ви Герман.
[Profile]  [PM] 
Display posts:    
Reply to topic

Current time is: 28-Jan 13:29

All times are UTC + 2



You cannot post new topics in this forum
You cannot reply to topics in this forum
You cannot edit your posts in this forum
You cannot delete your posts in this forum
You cannot vote in polls in this forum
You cannot attach files in this forum
You cannot download files in this forum