Охота на работу / Get a Job (Дилан Кидд / Dylan Kidd) [2016, США, комедия, WEB-DLRip] MVO (RecentFilms)

Reply to topic
 
Author
Message

Satyr ®

Gender: Unknown

Longevity: 11 years

Posts: 15401

Reputation: 55 [+] [-]

Satyr · Post 11-Sep-2016 01:26

[Quote] 

Охота на работу / Get a Job
Страна: США
Жанр: комедия
Год выпуска: 2016
Продолжительность: 01:22:45
Перевод: Любительский (многоголосый закадровый) RecentFilms
Cубтитры: нет
Оригинальная аудиодорожка: нет-Режиссер: Дилан Кидд / Dylan Kidd-В ролях: Элисон Бри, Анна Кендрик, Майлз Теллер, Брайан Крэнстон, Грег Джерманн, Кристофер Минц-Плассе, Марша Гей Харден, Николас Браун, Кэмерон Ричардсон, Джон К. МакГинли-Описание: Сюжет ленты строится вокруг выпускника колледжа и его друзей. Молодые специалисты стоят на распутье, чем заниматься, зачем и тому ли они учились. В стране Экономический кризис, а молодежь хочет отрываться.- -Качество видео: WEB-DLRip
Формат видео: AVI
Видео: 656x368 (1.78:1), 23.976 fps, XviD build 65 ~1118 kbps avg, 0.19 bit/pixel
Аудио: 48 kHz, MPEG Layer 3, 2 ch, ~128.00 kbps avg-Сккачать сэмпл-

MediaInfo

Format                      : AVI
Format/Info                 : Audio Video Interleave
File size                   : 743 MiB
Duration                    : 1h 22mn
Overall bit rate            : 1 256 Kbps
Writing application         : VirtualDubMod 1.5.10.3 | www.virtualdub-fr.org || (build 2550/release)
Writing library             : VirtualDubMod build 2550/release
Video
ID                          : 0
Format                      : MPEG-4 Visual
Format profile              : Advanced Simple@L5
Format settings, BVOP       : 1
Format settings, QPel       : No
Format settings, GMC        : No warppoints
Format settings, Matrix     : Default (MPEG)
Codec ID                    : XVID
Codec ID/Hint               : XviD
Duration                    : 1h 22mn
Bit rate                    : 1 119 Kbps
Width                       : 656 pixels
Height                      : 368 pixels
Display aspect ratio        : 16:9
Frame rate                  : 23.976 (23976/1000) fps
Color space                 : YUV
Chroma subsampling          : 4:2:0
Bit depth                   : 8 bits
Scan type                   : Progressive
Compression mode            : Lossy
Bits/(Pixel*Frame)          : 0.193
Stream size                 : 662 MiB (89%)
Writing library             : XviD 65
Audio
ID                          : 1
Format                      : MPEG Audio
Format version              : Version 1
Format profile              : Layer 3
Codec ID                    : 55
Codec ID/Hint               : MP3
Duration                    : 1h 22mn
Bit rate mode               : Constant
Bit rate                    : 128 Kbps
Channel(s)                  : 2 channels
Sampling rate               : 48.0 KHz
Compression mode            : Lossy
Stream size                 : 75.8 MiB (10%)
Alignment                   : Aligned on interleaves
Interleave, duration        : 42 ms (1.00 video frame)
Interleave, preload duratio : 504 ms
Writing library             : LAME3.99r
Encoding settings           : -m s -V 4 -q 2 -lowpass 17 -b 128

Скриншоты

[Profile]  [PM] 
Display posts:    
Reply to topic

Current time is: 24-Sep 22:25

All times are UTC + 2



You cannot post new topics in this forum
You cannot reply to topics in this forum
You cannot edit your posts in this forum
You cannot delete your posts in this forum
You cannot vote in polls in this forum
You cannot attach files in this forum
You cannot download files in this forum