Дочь Бога / Daughter of God / Exposed (Деклан Дэйл / Declan Dale) [2016, США, Драма, HDRip] MVO (Paradox & Omskbird records)

Reply to topic
 
Author
Message

Satyr ®

Gender: Unknown

Longevity: 11 years

Posts: 15401

Reputation: 55 [+] [-]

Satyr · Post 11-Sep-2016 01:26

[Quote] 

Дочь Бога / Daughter of God / Exposed Страна: США
Жанр: Драма
Год выпуска: 2016
Продолжительность: 01:41:53
Перевод: Любительский (многоголосый закадровый) Paradox & Omskbird records
Cубтитры: нет
Оригинальная аудиодорожка: нет
Режиссер: Деклан Дэйл / Declan Dale
В ролях: Киану Ривз, Ана де Армас, Мира Сорвино, Биг Дэдди Кэйн, Кристофер МакДональд, Лаура Гомез, Мелисса Линтон, Клара Вонг, Майкл Рисполи, Дения Браче
Описание: В метро происходит жуткое преступление: убит детектив по имени Джошуа. За поиски убийцы берется его напарник, Скотт Галбан. Возле трупа лежал фотоаппарат, снимки на котором Скотт смотрит постоянно, пытаясь найти зацепку. Он находит свидетелей, но убийца быстрее: свидетели умирают один за другим до беседы со Скоттом. Осталась лишь Изабель, которая видела убийство, а теперь боится смерти.
Группа желает всем приятного просмотра!
Качество видео: HDRip [BDRip 1080p]
Формат видео: AVI
Видео: 640x272 (2.35:1), 24 fps, XviD build 73 ~882 kbps avg, 0.21 bit/pixel
Аудио: 48 kHz, MPEG Layer 3, 2 ch, ~128.00 kbps avg
Сэмпл: http://multi-up.com/1095631

MediaInfo

eneral
Complete name : D:\Торренты\Daughter of God_Drek_Rutracker.org.avi
Format : AVI
Format/Info : Audio Video Interleave
File size : 743 MiB
Duration : 1h 41mn
Overall bit rate : 1 020 Kbps
Writing application : VirtualDubMod 1.5.10.2 (build 2540/release)
Writing library : VirtualDubMod build 2540/release
Video
ID : 0
Format : MPEG-4 Visual
Format profile : Advanced Simple@L5
Format settings, BVOP : 2
Format settings, QPel : No
Format settings, GMC : No warppoints
Format settings, Matrix : Custom
Codec ID : XVID
Codec ID/Hint : XviD
Duration : 1h 41mn
Bit rate : 883 Kbps
Width : 640 pixels
Height : 272 pixels
Display aspect ratio : 2.35:1
Frame rate : 24.000 fps
Color space : YUV
Chroma subsampling : 4:2:0
Bit depth : 8 bits
Scan type : Progressive
Compression mode : Lossy
Bits/(Pixel*Frame) : 0.211
Stream size : 643 MiB (87%)
Writing library : XviD 73
Audio
ID : 1
Format : MPEG Audio
Format version : Version 1
Format profile : Layer 3
Codec ID : 55
Codec ID/Hint : MP3
Duration : 1h 41mn
Bit rate mode : Constant
Bit rate : 128 Kbps
Channel(s) : 2 channels
Sampling rate : 48.0 KHz
Compression mode : Lossy
Stream size : 93.3 MiB (13%)
Alignment : Aligned on interleaves
Interleave, duration : 42 ms (1.00 video frame)
Interleave, preload duratio : 504 ms
Writing library : LAME3.99r

Скриншот c названием фильма

Скриншоты

[Profile]  [PM] 
Display posts:    
Reply to topic

Current time is: 22-Sep 16:06

All times are UTC + 2



You cannot post new topics in this forum
You cannot reply to topics in this forum
You cannot edit your posts in this forum
You cannot delete your posts in this forum
You cannot vote in polls in this forum
You cannot attach files in this forum
You cannot download files in this forum