Лес призраков / The Forest (Джейсон Зада / Jason Zada) [2016, США, ужасы, детектив, BDRip-AVC] Dub

Reply to topic
 
Author
Message

Satyr ®

Gender: Unknown

Longevity: 11 years

Posts: 15401

Reputation: 55 [+] [-]

Satyr · Post 11-Sep-2016 01:26

[Quote] 

Лес призраков / The Forest
«Каждый приходит сюда в поиске выхода»
- Страна: США
Жанр: ужасы, детектив
Год выпуска: 2016
Продолжительность: 01:33:17
Перевод : Профессиональный (полное дублирование)
Cубтитры: нет
Режиссер: Джейсон Зада / Jason Zada
В ролях: Натали Дормер, Оуэн Мэкен, Стефани Вогт, Осаму Танпопо, Ясуо Тобисима, Ибуки Канеда, Акико Ивасе, Кикуо Ичикава, Норико Сакура, Йозеф Аоки
Описание: Юная американка Сара отправляется на поиски сестры-близняшки, которая таинственным образом исчезла на японском острове Хонсю. Поиски приводят к подножью горы Фудзи, в таинственный лес, который пользуется дурной славой. Сара не подозревала, что она вступает в мрачный мир призраков, злых и измученных душ, которые охотятся на любого, кто блуждает по их мрачному лесу…

Качество видео: BDRip-AVC (исходник - BDRemux|The.Forest.2016.BluRay.1080p.DTS-HD.MA.5.1.AVC.REMUX-FraMeSToR)
Формат видео: MKV
Видео: x264, 1072x578 (1.85:1), 23,976 fps, ~1860 kbps, 0.125 bit/pixel
Аудио: 48 kHz, AC3 Dolby Digital, 3/2 (L,C,R,l,r) + LFE ch, ~384 kbps

MediaInfo | x264 log

Format : Matroska
Format version : Version 4 / Version 2
File size : 1.46 GiB
Duration : 1h 33mn
Overall bit rate : 2 241 Kbps
Movie name : Лес призраков / The Forest (2016) :: AFM ::
Encoded date : UTC 2016-03-31 16:16:43
Writing application : mkvmerge v8.3.0 ('Over the Horizon') 32bit
Writing library : libebml v1.3.1 + libmatroska v1.4.2
Video
ID : 1
Format : AVC
Format/Info : Advanced Video Codec
Format profile : High@L4.1
Format settings, CABAC : Yes
Format settings, ReFrames : 11 frames
Codec ID : V_MPEG4/ISO/AVC
Duration : 1h 33mn
Bit rate : 1 860 Kbps
Width : 1 072 pixels
Height : 578 pixels
Display aspect ratio : 1.85:1
Frame rate mode : Constant
Frame rate : 23.976 fps
Color space : YUV
Chroma subsampling : 4:2:0
Bit depth : 8 bits
Scan type : Progressive
Bits/(Pixel*Frame) : 0.125
Stream size : 1.18 GiB (81%)
Title : BDRip by AFM [torrentsland.com.ua]
Writing library : x264 core 148 r2665+53 6629127 t_mod_Custom [8-bit@all X86_64]
Encoding settings : cabac=1 / ref=11 / deblock=1:-2:-1 / analyse=0x3:0x113 / me=umh / subme=10 / psy=1 / fade_compensate=0.00 / psy_rd=1.00:0.00 / mixed_ref=1 / me_range=32 / chroma_me=1 / trellis=2 / 8x8dct=1 / cqm=0 / deadzone=21,11 / fast_pskip=0 / chroma_qp_offset=-2 / threads=6 / lookahead_threads=1 / sliced_threads=0 / nr=0 / decimate=0 / interlaced=0 / bluray_compat=0 / constrained_intra=0 / fgo=0 / bframes=14 / b_pyramid=2 / b_adapt=2 / b_bias=0 / direct=1 / weightb=1 / open_gop=0 / weightp=2 / keyint=250 / keyint_min=23 / scenecut=40 / intra_refresh=0 / rc_lookahead=40 / rc=2pass / mbtree=0 / bitrate=1860 / ratetol=1.0 / qcomp=0.65 / qpmin=0:0:0 / qpmax=69:69:69 / qpstep=4 / cplxblur=20.0 / qblur=0.5 / vbv_maxrate=50000 / vbv_bufsize=62500 / nal_hrd=none / filler=0 / ip_ratio=1.35 / pb_ratio=1.30 / aq=3:0.80 / aq-sensitivity=10.00 / aq-factor=1.00:1.00:1.00 / aq2=0 / aq3=0
Language : English
Default : Yes
Forced : No
Audio
ID : 2
Format : AC-3
Format/Info : Audio Coding 3
Mode extension : CM (complete main)
Format settings, Endianness : Big
Codec ID : A_AC3
Duration : 1h 33mn
Bit rate mode : Constant
Bit rate : 384 Kbps
Channel(s) : 6 channels
Channel positions : Front: L C R, Side: L R, LFE
Sampling rate : 48.0 KHz
Compression mode : Lossy
Stream size : 256 MiB (17%)
Title : Dub, AC3 5.1 ~384 kbps
Language : Russian
Default : Yes
Forced : No

x264

x264 [info]: frame I:837 Avg QP:14.75 size: 70558
x264 [info]: frame P:28809 Avg QP:18.04 size: 20994
x264 [info]: frame B:104557 Avg QP:20.12 size: 6065
x264 [info]: consecutive B-frames: 2.5% 2.7% 9.2% 14.1% 13.6% 44.4% 5.3% 1.5% 1.9% 1.1% 1.2% 0.9% 0.9% 0.4% 0.5%
x264 [info]: mb I I16..4: 7.9% 78.2% 13.9%
x264 [info]: mb P I16..4: 1.2% 8.0% 1.1% P16..4: 43.0% 25.4% 14.2% 0.0% 0.0% skip: 7.1%
x264 [info]: mb B I16..4: 0.0% 0.5% 0.1% B16..8: 41.4% 8.5% 1.7% direct: 3.3% skip:44.5% L0:44.6% L1:49.4% BI: 6.0%
x264 [info]: 8x8 transform intra:78.2% inter:64.9%
x264 [info]: coded y,uvDC,uvAC intra: 80.5% 75.4% 47.7% inter: 17.2% 12.3% 4.8%
x264 [info]: i16 v,h,dc,p: 36% 12% 11% 41%
x264 [info]: i8 v,h,dc,ddl,ddr,vr,hd,vl,hu: 15% 6% 7% 10% 14% 13% 13% 11% 11%
x264 [info]: i4 v,h,dc,ddl,ddr,vr,hd,vl,hu: 23% 4% 4% 10% 14% 13% 12% 10% 10%
x264 [info]: i8c dc,h,v,p: 38% 25% 21% 16%
x264 [info]: Weighted P-Frames: Y:98.2% UV:3.0%
x264 [info]: ref P L0: 48.3% 7.9% 16.6% 6.6% 5.5% 4.1% 3.5% 2.0% 1.9% 1.7% 1.6% 0.4% 0.0%
x264 [info]: ref B L0: 70.5% 12.2% 6.1% 3.2% 2.7% 1.9% 1.5% 0.9% 0.7% 0.3%
x264 [info]: ref B L1: 91.7% 8.3%
x264 [info]: kb/s:1855.19

Скриншоты

с названием

[Profile]  [PM] 
Display posts:    
Reply to topic

Current time is: 19-Sep 11:16

All times are UTC + 2



You cannot post new topics in this forum
You cannot reply to topics in this forum
You cannot edit your posts in this forum
You cannot delete your posts in this forum
You cannot vote in polls in this forum
You cannot attach files in this forum
You cannot download files in this forum