Хот Бот / Hot Bot (Майкл Полиш / Michael Polish) [2016, США, Фантастика, комедия, WEB-DLRip] DVO (Parovoz Production)

Reply to topic
 
Author
Message

Satyr ®

Gender: Unknown

Longevity: 11 years

Posts: 15401

Reputation: 55 [+] [-]

Satyr · Post 11-Sep-2016 01:26

[Quote] 

Хот Бот / Hot Bot
Страна: США
Жанр: Фантастика, комедия
Год выпуска: 2016
Продолжительность: 01:32:00
Перевод: Любительский (двухголосый закадровый) Parovoz Production
Cубтитры: нет
Режиссер: Майкл Полиш / Michael Polish
В ролях: Зак Перлман, Даг Хейли, Синтия Киршнер, Дэвид Шакелфорд, Энтони Андерсон, Дональд Фэйзон, Дэнни Мастерсон, Ларри Миллер, Анджела Кинси, Кирби Блисс Блэнтон...
Описание: Приключения двух ботанов, которые наткнулись на суперсексмодель....
Доп. информация: релиз без рекламы
Сэмпл: http://multi-up.com/1093951
Качество видео: WEB-DLRip Hot.Bot.2016.720p.NF.WEB-DL.x264.DD5.1-FGT
Формат видео: AVI
Видео: 720x304 (2.37:1), 25 fps, XviD build 73 ~2068 kbps avg, 0.38 bit/pixel
Аудио: 48 kHz, AC3 Dolby Digital, 2/0 (L,R) ch, ~192 kbps

MediaInfo

ормат : AVI
Формат/Информация : Audio Video Interleave
Размер файла : 1,46 Гбайт
Продолжительность : 1 ч. 32 м.
Общий поток : 2270 Кбит/сек
Программа кодирования : VirtualDubMod 1.5.10.3 (build 2550/release)
Библиотека кодирования : VirtualDubMod build 2550/release
Видео
Идентификатор : 0
Формат : MPEG-4 Visual
Профиль формата : Advanced Simple@L5
Параметр BVOP формата : 1
Параметр QPel формата : Нет
Параметр GMC формата : Без точки перехода
Параметр матрицы формата : Выборочная
Идентификатор кодека : XVID
Идентификатор кодека/Подсказка : XviD
Продолжительность : 1 ч. 32 м.
Битрейт : 2068 Кбит/сек
Ширина : 720 пикселей
Высота : 304 пикселя
Соотношение сторон : 2,35:1
Частота кадров : 25,000 кадров/сек
Цветовое пространство : YUV
Субдискретизация насыщенности : 4:2:0
Битовая глубина : 8 бит
Тип развёртки : Прогрессивная
Метод сжатия : С потерями
Бит/(Пиксели*Кадры) : 0.378
Размер потока : 1,33 Гбайт (91%)
Библиотека кодирования : XviD 73
Аудио
Идентификатор : 1
Формат : AC-3
Формат/Информация : Audio Coding 3
Расширение режима : CM (complete main)
Параметр Endianness формата : Big
Идентификатор кодека : 2000
Продолжительность : 1 ч. 32 м.
Вид битрейта : Постоянный
Битрейт : 192 Кбит/сек
Каналы : 2 канала
Расположение каналов : Front: L R
Частота : 48,0 КГц
Частота кадров : 31,250 кадров/сек (1536 spf)
Метод сжатия : С потерями
Размер потока : 126 Мбайт (8%)
Выравнивание : Разделение по промежуткам
Продолжительность промежутка : 40 мс. (1,00 видеокадр)
Время предзагрузки промежутка : 500 мс.

Скриншоты

[Profile]  [PM] 
Display posts:    
Reply to topic

Current time is: 20-Sep 19:28

All times are UTC + 2



You cannot post new topics in this forum
You cannot reply to topics in this forum
You cannot edit your posts in this forum
You cannot delete your posts in this forum
You cannot vote in polls in this forum
You cannot attach files in this forum
You cannot download files in this forum