Боевой механизм / Swap (Тимоти Вудворд мл. / Timothy Woodward Jr.) [2016, США, Фантастика, Боевик, Триллер, HDRip] DVO (Parovoz Production) + Original Eng

Reply to topic
 
Author
Message

Satyr ®

Online

Gender: Unknown

Longevity: 11 years

Posts: 15401

Reputation: 55 [+] [-]

Satyr · Post 11-Sep-2016 01:27

[Quote] 

-Боевой механизм / Swap«The future of war is here» -Страна: США
Жанр: Фантастика, Боевик, Триллер
Год выпуска: 2016
Продолжительность: 01:30:59-Перевод: Любительский (двухголосый закадровый) Parovoz Production-Cубтитры: нет
Оригинальная аудиодорожка: Английская-Режиссер: Тимоти Вудворд мл. / Timothy Woodward Jr.-В ролях: Том Сайзмор, Джонни Месснер, Микки Рурк, Тейлор Коул, Джон Фу, Майкл Паре, Крис Дэймон, Каллен Дж. Чэмберс, Тимоти Вудворд мл., Джон Лофлин-Описание: Ближайшее будущее, биотехнологии достигли достаточного уровня, чтобы интегрировать воедино человеческую плоть и боевую роботизированную броню. В секретных лабораториях созданы первые практически непобедимые солдаты-киборги. Полицейский детектив, расследуя убийство своего сына - жертвы теракта, решает перепрограммировать киборгов и направить их против виновной террористической группировки. Однако, вирус, которым он заражает командную систему биороботов превращает их в бесжалостных убийц всего живого вокруг...- - -Качество видео: HDRip
Формат видео: AVI-Видео: XviD, 720x304 (2.35:1), 23.976 fps, ~1887 kbps avg, 0.36 bit/pixel
Аудио 1: 48 kHz, AC3 Dolby Digital, 2/0 (L,R) ch, ~192 kbps avg
Аудио 2: 48 kHz, AC3 Dolby Digital, 2/0 (L,R) ch, ~192 kbps avg-

MediaInfo

Complete name : D:\РАЗДАЧИ\Swap (2016) HDRip.avi
Format : AVI
Format/Info : Audio Video Interleave
File size : 1.45 GiB
Duration : 1h 30mn
Overall bit rate : 2 285 Kbps
Writing application : VirtualDubMod 1.5.10.3 | www.virtualdub-fr.org || (build 2550/release)
Writing library : VirtualDubMod build 2550/release
Video
ID : 0
Format : MPEG-4 Visual
Format profile : Advanced Simple@L5
Format settings, BVOP : 1
Format settings, QPel : No
Format settings, GMC : No warppoints
Format settings, Matrix : Custom
Codec ID : XVID
Codec ID/Hint : XviD
Duration : 1h 30mn
Bit rate : 1 887 Kbps
Width : 720 pixels
Height : 304 pixels
Display aspect ratio : 2.35:1
Frame rate : 23.976 fps
Color space : YUV
Chroma subsampling : 4:2:0
Bit depth : 8 bits
Scan type : Progressive
Compression mode : Lossy
Bits/(Pixel*Frame) : 0.360
Stream size : 1.20 GiB (83%)
Writing library : XviD 73
Audio #1
ID : 1
Format : AC-3
Format/Info : Audio Coding 3
Mode extension : CM (complete main)
Format settings, Endianness : Big
Codec ID : 2000
Duration : 1h 30mn
Bit rate mode : Constant
Bit rate : 192 Kbps
Channel(s) : 2 channels
Channel positions : Front: L R
Sampling rate : 48.0 KHz
Bit depth : 16 bits
Compression mode : Lossy
Stream size : 125 MiB (8%)
Alignment : Split accross interleaves
Interleave, duration : 42 ms (1.00 video frame)
Interleave, preload duration : 500 ms
Audio #2
ID : 2
Format : AC-3
Format/Info : Audio Coding 3
Mode extension : CM (complete main)
Format settings, Endianness : Big
Codec ID : 2000
Duration : 1h 30mn
Bit rate mode : Constant
Bit rate : 192 Kbps
Channel(s) : 2 channels
Channel positions : Front: L R
Sampling rate : 48.0 KHz
Bit depth : 16 bits
Compression mode : Lossy
Stream size : 125 MiB (8%)
Alignment : Split accross interleaves
Interleave, duration : 42 ms (1.00 video frame)
Interleave, preload duration : 500 ms

Скриншот c названием фильма

Скриншоты

[Profile]  [PM] 
Display posts:    
Reply to topic

Current time is: 26-Sep 09:33

All times are UTC + 2



You cannot post new topics in this forum
You cannot reply to topics in this forum
You cannot edit your posts in this forum
You cannot delete your posts in this forum
You cannot vote in polls in this forum
You cannot attach files in this forum
You cannot download files in this forum