Морпехи 3: В осаде / Jarhead 3: The Siege (Уильям Кауфман / William Kaufman) [2016, США, Боевик, военный, BDRip-AVC] Dub + Sub Rus, Eng + Original Eng

Reply to topic
 
Author
Message

Satyr ®

Online

Gender: Unknown

Longevity: 11 years

Posts: 15401

Reputation: 55 [+] [-]

Satyr · Post 11-Sep-2016 01:27

[Quote] 

Морпехи 3: В осадеJarhead 3: The Siege«Герои высшего класса»

Страна: США
Жанр: Боевик, военный
Год выпуска: 2016
Продолжительность: 01:28:59
Перевод: Профессиональный (дублированный) Bluray CEE
Cубтитры: русские,английские
Оригинальная аудиодорожка: английский
Режиссер: Уильям Кауфман / William Kaufman
В ролях: Чарли Вебер, Скотт Эдкинс, Том Эйнсли, Эрик Валдез, Данте Баско, Саша Джексон, Деннис Хейсбёрт, Стефен Хоган, Джо Корригалл, Адриан Ховард
Описание: Отряду морских пехотинцев, чья миссия - защита посольства США в одной из ближневосточных стран, приходится отражать внезапную атаку противника.
Доп. информация:
Релиз группы:
Сохранены оригинальные главы как на Bluray
Качество видео: BDRip-AVC | Морпехи 3: В осаде / Jarhead 3: The Siege (2016) Blu-ray CEE 1080p AVC DTS 5.1| HD club
Формат видео: MKV
Видео: 1120x476 (2:35:1), 23,976 fps, 3235 Кbps, 0.253 bit/pixe
Аудио: 48 kHz, AC3 Dolby Digital, 3/2 (L,C,R,l,r) + LFE ch, ~448.00 kbps avg DUB
Аудио 2: 48 kHz, AC3 Dolby Digital, 3/2 (L,C,R,l,r) + LFE ch, ~448.00 kbps avg ENG
Формат субтитров: softsub (SRT)
Доп. информация о субтитрах: отключаемые

MediaInfo

General
Unique ID : 188075558866706256345349433229063863329 (0x8D7E08F9E16F18B8B10D734B2AD5BC21)
Complete name : D:\Мои рипы\Морпехи 3 В осаде\Jarhead 3 The Siege by_IVAN@.190282.mkv
Format : Matroska
Format version : Version 4 / Version 2
File size : 2.62 GiB
Duration : 1h 28mn
Overall bit rate : 4 215 Kbps
Movie name : Jarhead 3 The Siege by_IVAN@190282
Encoded date : UTC 2016-02-24 18:40:20
Writing application : mkvmerge v8.8.0 ('Wind at my back') 64bit
Writing library : libebml v1.3.3 + libmatroska v1.4.4
Attachements : cover.jpg
DURATION : 01:25:05.684000000
NUMBER_OF_FRAMES : 1221
NUMBER_OF_BYTES : 40322
_STATISTICS_WRITING_APP : mkvmerge v8.8.0 ('Wind at my back') 64bit
_STATISTICS_WRITING_DATE_UT : 2016-02-24 18:40:20
_STATISTICS_TAGS : BPS DURATION NUMBER_OF_FRAMES NUMBER_OF_BYTES
Video
ID : 1
Format : AVC
Format/Info : Advanced Video Codec
Format profile : High@L4.1
Format settings, CABAC : Yes
Format settings, ReFrames : 11 frames
Codec ID : V_MPEG4/ISO/AVC
Duration : 1h 28mn
Bit rate : 3 235 Kbps
Width : 1 120 pixels
Height : 476 pixels
Display aspect ratio : 2.35:1
Frame rate mode : Constant
Frame rate : 23.976 fps
Color space : YUV
Chroma subsampling : 4:2:0
Bit depth : 8 bits
Scan type : Progressive
Bits/(Pixel*Frame) : 0.253
Stream size : 2.01 GiB (77%)
Title : Jarhead 3 The Siege by_IVAN@190282
Writing library : x264 core 148 r2638kMod 7599210
Encoding settings : cabac=1 / ref=11 / deblock=1:-3:-2 / analyse=0x3:0x133 / me=umh / subme=11 / psy=1 / fade_compensate=0.00 / psy_rd=1.00:0.05 / mixed_ref=1 / me_range=48 / chroma_me=1 / trellis=2 / 8x8dct=1 / cqm=0 / deadzone=21,11 / fast_pskip=0 / chroma_qp_offset=-3 / threads=6 / lookahead_threads=6 / sliced_threads=0 / nr=0 / decimate=1 / interlaced=0 / bluray_compat=0 / constrained_intra=0 / fgo=0 / bframes=16 / b_pyramid=2 / b_adapt=2 / b_bias=0 / direct=3 / weightb=1 / open_gop=0 / weightp=2 / keyint=240 / keyint_min=23 / scenecut=40 / intra_refresh=0 / rc_lookahead=60 / rc=crf / mbtree=0 / crf=16.7000 / qcomp=0.60 / qpmin=0 / qpmax=69 / qpstep=4 / vbv_maxrate=50000 / vbv_bufsize=62500 / crf_max=0.0 / nal_hrd=none / filler=0 / ip_ratio=1.40 / pb_ratio=1.30 / aq=2:1.10
Language : English
Default : Yes
Forced : No
Color range : Limited
Color primaries : BT.709
Transfer characteristics : BT.709
Matrix coefficients : BT.709
DURATION : 01:28:59.167000000
NUMBER_OF_FRAMES : 128012
NUMBER_OF_BYTES : 2213202839
_STATISTICS_WRITING_APP : mkvmerge v8.8.0 ('Wind at my back') 64bit
_STATISTICS_WRITING_DATE_UT : 2016-02-24 18:40:20
_STATISTICS_TAGS : BPS DURATION NUMBER_OF_FRAMES NUMBER_OF_BYTES
Audio #1
ID : 2
Format : AC-3
Format/Info : Audio Coding 3
Mode extension : CM (complete main)
Format settings, Endianness : Big
Codec ID : A_AC3
Duration : 1h 28mn
Bit rate mode : Constant
Bit rate : 448 Kbps
Channel(s) : 6 channels
Channel positions : Front: L C R, Side: L R, LFE
Sampling rate : 48.0 KHz
Compression mode : Lossy
Stream size : 285 MiB (11%)
Title : Dub Bluray CEE
Default : Yes
Forced : No
Audio #2
ID : 3
Format : AC-3
Format/Info : Audio Coding 3
Mode extension : CM (complete main)
Format settings, Endianness : Big
Codec ID : A_AC3
Duration : 1h 28mn
Bit rate mode : Constant
Bit rate : 448 Kbps
Channel(s) : 6 channels
Channel positions : Front: L C R, Side: L R, LFE
Sampling rate : 48.0 KHz
Compression mode : Lossy
Stream size : 285 MiB (11%)
Title : Eng
Language : English
Default : No
Forced : No
Text #1
ID : 4
Format : UTF-8
Codec ID : S_TEXT/UTF8
Codec ID/Info : UTF-8 Plain Text
Title : Rus forsed
Default : Yes
Forced : Yes
Text #2
ID : 5
Format : UTF-8
Codec ID : S_TEXT/UTF8
Codec ID/Info : UTF-8 Plain Text
Title : Rus
Default : No
Forced : No
Text #3
ID : 6
Format : UTF-8
Codec ID : S_TEXT/UTF8
Codec ID/Info : UTF-8 Plain Text
Title : Eng
Language : English
Default : No
Forced : No
Menu
00:00:00.000 : en:00:00:00.000
00:05:05.263 : en:00:05:05.263
00:09:19.600 : en:00:09:19.600
00:14:26.198 : en:00:14:26.198
00:19:45.142 : en:00:19:45.142
00:23:39.793 : en:00:23:39.793
00:28:47.142 : en:00:28:47.142
00:34:03.291 : en:00:34:03.291
00:40:01.440 : en:00:40:01.440
00:46:18.609 : en:00:46:18.609
00:49:56.368 : en:00:49:56.368
00:54:46.616 : en:00:54:46.616
00:57:43.084 : en:00:57:43.084
01:01:56.170 : en:01:01:56.170
01:05:18.205 : en:01:05:18.205
01:08:21.889 : en:01:08:21.889
01:13:27.236 : en:01:13:27.236
01:19:02.529 : en:01:19:02.529
01:23:29.421 : en:01:23:29.421
01:25:34.379 : en:01:25:34.379

x264 log

VIDEO ENCODING
x264 [info]: frame I:1230 Avg QP:15.22 size: 77522 PSNR Mean Y:47.82 U:50.63 V:50.95 Avg:48.57 Global:48.05
x264 [info]: frame P:36127 Avg QP:16.91 size: 29879 PSNR Mean Y:46.66 U:50.26 V:50.54 Avg:47.54 Global:46.87
x264 [info]: frame B:90655 Avg QP:19.34 size: 11454 PSNR Mean Y:45.57 U:49.35 V:49.88 Avg:46.48 Global:45.84
x264 [info]: consecutive B-frames: 6.5% 7.9% 14.7% 22.4% 15.8% 23.8% 4.4% 1.5% 1.0% 0.6% 0.4% 0.3% 0.2% 0.2% 0.1% 0.0% 0.1%
x264 [total]: encoded 128012 frames, 6.53 fps, 3316.18 kb/s, duration 5:26:50.33

Скриншот c названием фильма

Скриншоты

Убедительная просьба пожалуйста кто скачал не бросайте раздачу!!!
Торрент файл перезалит,замена глав на оригинальные!
[Profile]  [PM] 
Display posts:    
Reply to topic

Current time is: 26-Sep 10:01

All times are UTC + 2



You cannot post new topics in this forum
You cannot reply to topics in this forum
You cannot edit your posts in this forum
You cannot delete your posts in this forum
You cannot vote in polls in this forum
You cannot attach files in this forum
You cannot download files in this forum