Округ беззакония / Lawless Range (Шон МакГинли / Sean McGinly) [2016, США, Драма, Вестерн, WEB-DLRip] DVO [Parovoz Production] + Original Eng

Reply to topic
 
Author
Message

Satyr ®

Gender: Unknown

Longevity: 15 years

Posts: 22020

Reputation: 56 [+] [-]

Satyr · Post 11-Sep-2016 01:27

[Quote] 

Округ беззакония / Lawless Range
Страна: США
Жанр: Драма, Вестерн
Год выпуска: 2016
Продолжительность: 01:24:32
Перевод: Любительский (двухголосый закадровый) [Parovoz Production]
Cубтитры: нет
Оригинальная аудиодорожка: английский
Режиссер: Шон МакГинли / Sean McGinly
В ролях: Крис Кристоферсон, Патрик Флюгер, Даниэлла Алонсо, Джастин Арнольд, Меган Аруффо, Жаки Барнбрук, Фейлин Биладо, Шарль Биссе, Бо Бриджес, Нил Браун мл., Курт Касерес
Описание: Братья Шон и Томми Доннелли живут и работают в современном Техасе. Томми — вечный неудачник, а Шон всегда был рядом, чтобы помочь ему, но когда Томми влетает на $6000 и просит их в долг у брата, Шон абсолютно бессилен. Деньги причитаются очень опасным людям и ни у Шона, ни у Томми нет ни копейки. На каждом шагу Томми удается найти способ, чтобы усугубить их и без того тяжелое положение. Ситуация обостряется до предела, когда Шон оказывается перед выбором: остаться с братом или отказаться от него раз и навсегда.

Качество видео: WEB-DLRip
Формат видео: AVI
Доп. Информация: Релиз без рекламы!
Видео: Xvid, 720x304, 2,35:1, 23,976 fps, ~1934 kbps
Аудио: AC3, 48 kHz, 192 kb/s, 2 ch, Русский
Аудио 2: AC3, 48 kHz, 192 kb/s, 2 ch, Английский

MediaInfo

Общее
Полное имя : Z:\Lawless_Range.2015.L2.WEB-DLRip.avi
Формат : AVI
Формат/Информация : Audio Video Interleave
Размер файла : 1,38 Гбайт
Продолжительность : 1 ч. 24 м.
Общий поток : 2332 Кбит/сек
Программа кодирования : VirtualDubMod 1.5.10.3 | www.virtualdub-fr.org || (build 2550/release)
Библиотека кодирования : VirtualDubMod build 2550/release
Видео
Идентификатор : 0
Формат : MPEG-4 Visual
Профиль формата : Advanced Simple@L5
Параметр BVOP формата : 2
Параметр QPel формата : Нет
Параметр GMC формата : Без точки перехода
Параметр матрицы формата : Default (H.263)
Идентификатор кодека : XVID
Идентификатор кодека/Подсказка : XviD
Продолжительность : 1 ч. 24 м.
Битрейт : 1934 Кбит/сек
Ширина : 720 пикселей
Высота : 304 пикселя
Соотношение сторон : 2,35:1
Частота кадров : 23,976 кадра/сек
Цветовое пространство : YUV
Субдискретизация насыщенности : 4:2:0
Битовая глубина : 8 бит
Тип развёртки : Прогрессивная
Метод сжатия : С потерями
Бит/(Пиксели*Кадры) : 0.369
Размер потока : 1,14 Гбайт (83%)
Библиотека кодирования : XviD 73
Аудио #1
Идентификатор : 1
Формат : AC-3
Формат/Информация : Audio Coding 3
Расширение режима : CM (complete main)
Параметр Endianness формата : Big
Идентификатор кодека : 2000
Продолжительность : 1 ч. 24 м.
Вид битрейта : Постоянный
Битрейт : 192 Кбит/сек
Каналы : 2 канала
Расположение каналов : Front: L R
Частота : 48,0 КГц
Битовая глубина : 16 бит
Метод сжатия : С потерями
Размер потока : 116 Мбайт (8%)
Выравнивание : Разделение по промежуткам
Продолжительность промежутка : 42 мс. (1,00 видеокадр)
Время предзагрузки промежутка : 500 мс.
Аудио #2
Идентификатор : 2
Формат : AC-3
Формат/Информация : Audio Coding 3
Расширение режима : CM (complete main)
Параметр Endianness формата : Big
Идентификатор кодека : 2000
Продолжительность : 1 ч. 24 м.
Вид битрейта : Постоянный
Битрейт : 192 Кбит/сек
Каналы : 2 канала
Расположение каналов : Front: L R
Частота : 48,0 КГц
Битовая глубина : 16 бит
Метод сжатия : С потерями
Размер потока : 116 Мбайт (8%)
Выравнивание : Разделение по промежуткам
Продолжительность промежутка : 42 мс. (1,00 видеокадр)
Время предзагрузки промежутка : 500 мс.

Скриншот c названием фильма

[

Скриншоты




[Profile]  [PM] 
Display posts:    
Reply to topic

Current time is: 13-Jul 08:08

All times are UTC + 2



You cannot post new topics in this forum
You cannot reply to topics in this forum
You cannot edit your posts in this forum
You cannot delete your posts in this forum
You cannot vote in polls in this forum
You cannot attach files in this forum
You cannot download files in this forum