Морпехи 3: В осаде / Jarhead 3: The Siege (Уильям Кауфман / William Kaufman) [2016, США, Боевик, Военный, HDRip] Dub

Reply to topic
 
Author
Message

Satyr ®

Gender: Unknown

Longevity: 11 years

Posts: 15401

Reputation: 55 [+] [-]

Satyr · Post 11-Sep-2016 01:27

[Quote] 

-Морпехи 3: В осаде / Jarhead 3: The Siege- -Страна: США
Жанр: Боевик, Военный
Год выпуска: 2016
Продолжительность: 01:28:59-Перевод: Профессиональный (дублированный)-Cубтитры: нет
Оригинальная аудиодорожка: нет-Режиссер: Уильям Кауфман / William Kaufman-В ролях: Скотт Эдкинс, Чарли Вебер, Том Эйнсли, Эрик Валдез, Данте Баско, Саша Джексон, Деннис Хейсбёрт, Стефен Хоган, Джо Корригалл, Адриан Ховард-Описание: Отряду морских пехотинцев, чья миссия — защита посольства США в одной из ближневосточных стран, приходится отражать внезапную атаку противника.- -Качество видео: HDRip
Формат видео: AVI-Видео: XviD, 672x288 (2.35:1), 23,976 fps, ~1000 kbps avg, 0.22 bit/pixel
Аудио: 48 kHz, MP3, 2/0 (L,R) ch, ~128 kbps avg-

MediaInfo

Complete name : C:\Users\1\Desktop\РАЗДАЧИ\Jarhead 3 The Siege (2015) HDRip.avi
Format : AVI
Format/Info : Audio Video Interleave
File size : 746 MiB
Duration : 1h 28mn
Overall bit rate : 1 171 Kbps
Writing application : VirtualDubMod 1.5.10.3 | www.virtualdub-fr.org || (build 2550/release)
Writing library : VirtualDub build 35491/release
Video
ID : 0
Format : MPEG-4 Visual
Format profile : Advanced Simple@L5
Format settings, BVOP : 1
Format settings, QPel : No
Format settings, GMC : No warppoints
Format settings, Matrix : Custom
Codec ID : XVID
Codec ID/Hint : XviD
Duration : 1h 28mn
Bit rate : 1 034 Kbps
Width : 672 pixels
Height : 288 pixels
Display aspect ratio : 2.35:1
Frame rate : 23.976 (23976/1000) fps
Color space : YUV
Chroma subsampling : 4:2:0
Bit depth : 8 bits
Scan type : Progressive
Compression mode : Lossy
Bits/(Pixel*Frame) : 0.223
Stream size : 658 MiB (88%)
Writing library : XviD 73
Audio
ID : 1
Format : MPEG Audio
Format version : Version 1
Format profile : Layer 3
Codec ID : 55
Codec ID/Hint : MP3
Duration : 1h 28mn
Bit rate mode : Constant
Bit rate : 128 Kbps
Channel(s) : 2 channels
Sampling rate : 48.0 KHz
Compression mode : Lossy
Stream size : 81.5 MiB (11%)
Alignment : Aligned on interleaves
Interleave, duration : 42 ms (1.00 video frame)
Interleave, preload duratio : 504 ms
Writing library : LAME3.99r
Encoding settings : -m s -V 4 -q 2 -lowpass 17 -b 128

Скриншот c названием фильма

Скриншоты

[Profile]  [PM] 
Display posts:    
Reply to topic

Current time is: 22-Jan 15:20

All times are UTC + 2



You cannot post new topics in this forum
You cannot reply to topics in this forum
You cannot edit your posts in this forum
You cannot delete your posts in this forum
You cannot vote in polls in this forum
You cannot attach files in this forum
You cannot download files in this forum