Взлом / Home Invasion (Дэвид Теннант / David Tennant) [2016, США, Триллер, WEB-DLRip] MVO (iTunes)

Reply to topic
 
Author
Message

Satyr ®

Gender: Unknown

Longevity: 11 years

Posts: 15401

Reputation: 55 [+] [-]

Satyr · Post 11-Sep-2016 01:27

[Quote] 

Взлом / Home Invasion Страна: США
Жанр: Триллер
Год выпуска: 2016
Продолжительность: 01:28:31-Перевод: Профессиональный (многоголосый закадровый) iTunes
Cубтитры: нет-Режиссер: Дэвид Теннант / David Tennant-В ролях: Наташа Хенстридж, Лиам Дикинсон, Майкл Роджерс, Кристиан Тессьер, Бренда Кричлоу, Лиэнн Лэпп, Гари Чок, Уэсли Сэлтер, Питер Клафф, Ли Тичон-Описание: Ужас приходит к персонажам этого психологического триллера в месте, которое они считали самым безопасным. В своем загородном доме, состоятельная дама со своим приемным сыном становятся жертвой нападения трех изощренных и беспощадных воров. Единственная их надежда на спасение - это оператор службы домашней сигнализации на другом конце телефона. Сможет ли он стать глазами пленников собственного дома и помочь им выбраться из кошмара наяву?-Сэмпл: http://multi-up.com/1087067-Качество видео: WEB-DLRip
Формат видео: AVI
Видео: 720x400, 23.976 fps, XviD build, 1814 Kbps, 0.26 bit/pixel
Аудио: 48 kHz, AC3 Dolby Digital, 3/2 (L,C,R,l,r) + LFE ch, 384 Kbps- -

MediaInfo

General
Complete name :
Format : AVI
Format/Info : Audio Video Interleave
File size : 1.37 GiB
Duration : 1h 28mn
Overall bit rate : 2 208 Kbps
Writing application : VirtualDubMod 1.5.10.3 | www.virtualdub-fr.org || (build 2550/release)
Writing library : VirtualDubMod build 2550/release
Video #0
ID : 0
Format : MPEG-4 Visual
Format profile : Advanced Simple@L5
Format settings, BVOP : 2
Format settings, QPel : No
Format settings, GMC : No warppoints
Format settings, Matrix : Default (MPEG)
Codec ID : XVID
Codec ID/Hint : XviD
Duration : 1h 28mn
Bit rate : 1 814 Kbps
Width : 720 pixels
Height : 400 pixels
Display aspect ratio : 16:9
Frame rate : 23.976 fps
Color space : YUV
Chroma subsampling : 4:2:0
Bit depth : 8 bits
Scan type : Progressive
Compression mode : Lossy
Bits/(Pixel*Frame) : 0.263
Stream size : 1.12 GiB (82%)
Writing library : XviD 1.2.1 (UTC 2008-12-04)
Audio #1
ID : 1
Format : AC-3
Format/Info : Audio Coding 3
Mode extension : CM (complete main)
Format settings, Endianness : Big
Codec ID : 2000
Duration : 1h 28mn
Bit rate mode : Constant
Bit rate : 384 Kbps
Channel(s) : 6 channels
Channel positions : Front: L C R, Side: L R, LFE
Sampling rate : 48.0 KHz
Bit depth : 16 bits
Compression mode : Lossy
Stream size : 243 MiB (17%)
Alignment : Split accross interleaves
Interleave, duration : 42 ms (1.00 video frame)
Interleave, preload duration : 500 ms

Скриншот c названием фильма

Скриншоты

[Profile]  [PM] 
Display posts:    
Reply to topic

Current time is: 01-Oct 06:57

All times are UTC + 2



You cannot post new topics in this forum
You cannot reply to topics in this forum
You cannot edit your posts in this forum
You cannot delete your posts in this forum
You cannot vote in polls in this forum
You cannot attach files in this forum
You cannot download files in this forum