Сын миллиардера / Billionaire boy (Мэтт Липси / Matt Lipsey) [2016, Великобритания, комедия, семейный, HDTVRip-AVC] Sub Rus + Original Eng

Reply to topic
 
Author
Message

Satyr ®

Gender: Unknown

Longevity: 11 years

Posts: 15401

Reputation: 55 [+] [-]

Satyr · Post 11-Sep-2016 01:27

[Quote] 

Сын миллиардера / Billionaire boy
Страна: Великобритания
Жанр: комедия, семейный
Год выпуска: 2016
Продолжительность: 00:59:59
Перевод: Субтитры (М.Васильев)
Cубтитры: русские
Оригинальная аудиодорожка: английский
Режиссер: Мэтт Липси / Matt Lipsey
В ролях: Эллиот Спрейк, Джон Томсон, Уорвик Дэвис, Кэтрин Тейт, Ребекка Фронт
Описание: Джо — сын миллиардера, сделавшего состояние на туалетной бумаге. Он живет в замке и ездит в школу на Роллс-Ройсе. Короче, у него есть все...кроме друзей. И пока папа заводит интрижку с фотомоделью (ведь настоящие миллиардеры встречаются только с моделями), Джо пытается найти общий язык со сверстниками.
Доп. информация: Телевизионный фильм канала BBC.
Новогодне-рождественская сказка.
Эфир: 1 января 2016
Сэмпл
КИНОПОИСК
IMDB
Фильм вышел тандемом с другой киносказкой (строго для взрослых) - И это моя семья!
Качество видео: HDTVRip-AVC
Формат видео: MP4
Видео: 1300 Kbps, 1024x576 (16:9) 25 000 fps, AVC
Аудио: 96.0 Kbps, 44.1 KHz, 2 ch, AAC
Формат субтитров: softsub (SRT)

MediaInfo

General
Complete name : C:\Users\master\Desktop\boy\boy.mp4
Format : MPEG-4
Format profile : Base Media / Version 2
Codec ID : mp42
File size : 602 MiB
Duration : 59mn 59s
Overall bit rate mode : Variable
Overall bit rate : 1 404 Kbps
Performer : BBC One
Composer : BBC iPlayer
Genre : Children's
Recorded date : UTC 2016-01-01 19:00:00
Writing application : HandBrake 6548svn 2014112401
Video
ID : 1
Format : AVC
Format/Info : Advanced Video Codec
Format profile : Main@L4.0
Format settings, CABAC : Yes
Format settings, ReFrames : 4 frames
Codec ID : avc1
Codec ID/Info : Advanced Video Coding
Duration : 59mn 59s
Bit rate : 1 300 Kbps
Width : 1 024 pixels
Height : 576 pixels
Display aspect ratio : 16:9
Frame rate mode : Variable
Frame rate : 25.000 fps
Minimum frame rate : 12.931 fps
Maximum frame rate : 25.000 fps
Color space : YUV
Chroma subsampling : 4:2:0
Bit depth : 8 bits
Scan type : Progressive
Bits/(Pixel*Frame) : 0.088
Stream size : 558 MiB (93%)
Writing library : x264 core 142 r2479 dd79a61
Encoding settings : cabac=1 / ref=1 / deblock=1:0:0 / analyse=0x1:0x111 / me=hex / subme=2 / psy=1 / psy_rd=1.00:0.00 / mixed_ref=0 / me_range=16 / chroma_me=1 / trellis=0 / 8x8dct=0 / cqm=0 / deadzone=21,11 / fast_pskip=1 / chroma_qp_offset=0 / threads=6 / lookahead_threads=2 / sliced_threads=0 / nr=0 / decimate=1 / interlaced=0 / bluray_compat=0 / constrained_intra=0 / bframes=3 / b_pyramid=2 / b_adapt=1 / b_bias=0 / direct=1 / weightb=1 / open_gop=0 / weightp=1 / keyint=250 / keyint_min=25 / scenecut=40 / intra_refresh=0 / rc_lookahead=10 / rc=2pass / mbtree=1 / bitrate=1300 / ratetol=1.0 / qcomp=0.60 / qpmin=0 / qpmax=69 / qpstep=4 / cplxblur=20.0 / qblur=0.5 / vbv_maxrate=20000 / vbv_bufsize=25000 / nal_hrd=none / filler=0 / ip_ratio=1.40 / aq=1:1.00
Color primaries : BT.601 PAL
Transfer characteristics : BT.709
Matrix coefficients : BT.601
Audio
ID : 2
Format : AAC
Format/Info : Advanced Audio Codec
Format profile : LC
Codec ID : 40
Duration : 59mn 58s
Bit rate mode : Variable
Bit rate : 96.0 Kbps
Channel(s) : 2 channels
Channel positions : Front: L R
Sampling rate : 44.1 KHz
Compression mode : Lossy
Stream size : 41.2 MiB (7%)
Title : Stereo

Скриншот c названием фильма

Скриншоты








Титры

1
00:00:11,100 --> 00:00:12,580
Джули!
2
00:00:12,580 --> 00:00:14,620
Привет.
3
00:00:14,620 --> 00:00:16,540
С Рождеством!
4
00:00:18,220 --> 00:00:21,660
Извини, денег
на открытку не было.
5
00:00:21,660 --> 00:00:23,300
Спасибо.
6
00:00:24,940 --> 00:00:27,100
Сегодня выдадут премию.
7
00:00:34,660 --> 00:00:37,180
Фабрика туалетной бумаги
8
00:00:37,180 --> 00:00:40,540
благодарит вас
за отличную работу в этом году.
9
00:00:40,540 --> 00:00:43,620
И в знак благодарности
10
00:00:43,620 --> 00:00:48,300
каждый получит
одну упаковку нашей продукции.
11
00:00:48,300 --> 00:00:49,340
С Рождеством.
12
00:00:59,140 --> 00:01:02,140
У меня нет денег
на подарок сыну.
13
00:01:04,580 --> 00:01:06,020
Берешь или нет?
14
00:01:11,700 --> 00:01:13,660
С Рождеством.
15
00:01:13,660 --> 00:01:14,700
С Рождеством.
16
00:01:15,860 --> 00:01:17,220
С Рождеством.
17
00:01:18,700 --> 00:01:20,500
Не унывай, Лэн.
18
00:01:20,500 --> 00:01:21,780
Все наладится.
19
00:01:21,780 --> 00:01:23,420
Ведь хуже уже некуда.
20
00:01:32,900 --> 00:01:34,660
С Рождеством.
21
00:01:34,660 --> 00:01:35,700
И тебя.
22
00:02:35,620 --> 00:02:39,700
Рождественская премия
в этом году не очень...
23
00:02:39,700 --> 00:02:42,980
Ну и ладно.
Идем пить чай.
24
00:02:42,980 --> 00:02:44,940
Пока, ребята.
25
00:03:07,660 --> 00:03:08,860
Спасибо.
[Profile]  [PM] 
Display posts:    
Reply to topic

Current time is: 24-Jan 06:59

All times are UTC + 2



You cannot post new topics in this forum
You cannot reply to topics in this forum
You cannot edit your posts in this forum
You cannot delete your posts in this forum
You cannot vote in polls in this forum
You cannot attach files in this forum
You cannot download files in this forum