Варкрафт / Warcraft (Дункан Джонс / Duncan Jones) [2016, США, фэнтези, боевик, приключения, BDRip-AVC] Dub

Reply to topic
 
Author
Message

Satyr ®

Gender: Unknown

Longevity: 11 years

Posts: 15401

Reputation: 55 [+] [-]

Satyr · Post 11-Sep-2016 22:00

[Quote] 

Варкрафт / Warcraft«Два мира - одна судьба»- Страна: США
Жанр: фэнтези, боевик, приключения
Год выпуска: 2016
Продолжительность: 02:03:07
Перевод: Профессиональный (дублированный) (iTunes)
Оригинальная аудиодорожка: нет
Cубтитры: нет
Навигация по главам: есть
Режиссер: Дункан Джонс / Duncan Jones
В ролях: Трэвис Фиммел (Anduin Lothar), Пола Пэттон (Garona), Бен Фостер (Medivh), Доминик Купер (Llane Wrynn), Тоби Кеббелл (Durotan / Antonidas), Бен Шнетцер (Khadgar), Роберт Казински (Orgrim), Клэнси Браун (Blackhand), Дэниэл Ву (Gul'dan), Рут Негга (Lady Taria), Анна Галвин (Draka), Каллум Кит Ренни (Moroes)
Описание: Веками магия и неприступные стены защищали людей от любых напастей. Но древнее зло, побежденное и забытое тысячелетия назад, пробудилось. В самом сердце королевства открылся темный портал, и раса невиданных существ наводнила земли Азерота. Так начались события, призванные навсегда изменить судьбу этого мира- -Качество: BDRip-AVC (исходник - BDRemux|WARCRAFT_REMUX_HDCLUB)
Формат видео: MKV
Видео: x264, 904x372 (2.40:1), 23,976 fps, ~2125 kbps, 0.264 bit/pixel
Аудио 1: 48 kHz, AC3 Dolby Digital, 3/2 (L,C,R,l,r) + LFE ch, ~384 kbps-

MediaInfo | x264 log

Format : Matroska
Format version : Version 4 / Version 2
File size : 2.16 GiB
Duration : 2h 3mn
Overall bit rate : 2 509 Kbps
Movie name : Варкрафт / Warcraft (2016) :: AFM ::
Encoded date : UTC 2016-09-10 14:34:36
Writing application : mkvmerge v8.3.0 ('Over the Horizon') 32bit
Writing library : libebml v1.3.1 + libmatroska v1.4.2
Video
ID : 1
Format : AVC
Format/Info : Advanced Video Codec
Format profile : High@L4.1
Format settings, CABAC : Yes
Format settings, ReFrames : 11 frames
Codec ID : V_MPEG4/ISO/AVC
Duration : 2h 3mn
Bit rate : 2 125 Kbps
Width : 904 pixels
Height : 372 pixels
Display aspect ratio : 2.40:1
Frame rate mode : Constant
Frame rate : 23.976 fps
Color space : YUV
Chroma subsampling : 4:2:0
Bit depth : 8 bits
Scan type : Progressive
Bits/(Pixel*Frame) : 0.264
Stream size : 1.78 GiB (83%)
Title : BDRip by AFM [torrentsland.com.ua]
Writing library : x264 core 148 r2705+54 9f484c1 t_mod_Custom [8-bit@all X86_64]
Encoding settings : cabac=1 / ref=11 / deblock=1:-2:-2 / analyse=0x3:0x113 / me=umh / subme=10 / psy=1 / fade_compensate=0.00 / psy_rd=1.00:0.00 / mixed_ref=1 / me_range=32 / chroma_me=1 / trellis=2 / 8x8dct=1 / cqm=0 / deadzone=21,11 / fast_pskip=0 / chroma_qp_offset=-2 / threads=6 / lookahead_threads=1 / sliced_threads=0 / nr=0 / decimate=0 / interlaced=0 / bluray_compat=0 / constrained_intra=0 / fgo=0 / bframes=13 / b_pyramid=2 / b_adapt=2 / b_bias=0 / direct=3 / weightb=1 / open_gop=0 / weightp=2 / keyint=250 / keyint_min=23 / scenecut=40 / intra_refresh=0 / rc_lookahead=40 / rc=2pass / mbtree=0 / bitrate=2125 / ratetol=1.0 / qcomp=0.65 / qpmin=0:0:0 / qpmax=69:69:69 / qpstep=4 / cplxblur=20.0 / qblur=0.5 / vbv_maxrate=50000 / vbv_bufsize=62500 / nal_hrd=none / filler=0 / ip_ratio=1.27 / pb_ratio=1.25 / aq=3:0.80 / aq-sensitivity=10.00 / aq-factor=1.00:1.00:1.00 / aq2=0 / aq3=0 / zones=167482,177120,q=30
Language : English
Default : Yes
Forced : No
Audio
ID : 2
Format : AC-3
Format/Info : Audio Coding 3
Mode extension : CM (complete main)
Format settings, Endianness : Big
Codec ID : A_AC3
Duration : 2h 3mn
Bit rate mode : Constant
Bit rate : 384 Kbps
Channel(s) : 6 channels
Channel positions : Front: L C R, Side: L R, LFE
Sampling rate : 48.0 KHz
Compression mode : Lossy
Stream size : 338 MiB (15%)
Title : Dub, AC3 5.1 ~384 kbps
Language : Russian
Default : Yes
Forced : No
Menu
00:00:00.000 : en:Chapter 1
00:09:26.482 : en:Chapter 2
00:15:49.407 : en:Chapter 3
00:22:36.145 : en:Chapter 4
00:29:16.171 : en:Chapter 5
00:38:43.321 : en:Chapter 6
00:46:44.093 : en:Chapter 7
00:53:02.679 : en:Chapter 8
00:56:17.332 : en:Chapter 9
01:02:43.927 : en:Chapter 10
01:07:48.314 : en:Chapter 11
01:12:24.549 : en:Chapter 12
01:17:13.045 : en:Chapter 13
01:22:45.669 : en:Chapter 14
01:26:32.145 : en:Chapter 15
01:32:29.669 : en:Chapter 16
01:40:25.102 : en:Chapter 17
01:47:38.118 : en:Chapter 18
01:51:12.833 : en:Chapter 19
01:53:58.832 : en:Chapter 20

x264

x264 [info]: frame I:1447 Avg QP:16.71 size: 65307
x264 [info]: frame P:48076 Avg QP:20.78 size: 20431
x264 [info]: frame B:127597 Avg QP:21.33 size: 6931
x264 [info]: consecutive B-frames: 5.2% 4.9% 13.6% 33.2% 17.4% 19.9% 2.8% 1.5% 0.5% 0.3% 0.2% 0.2% 0.1% 0.3%
x264 [info]: mb I I16..4: 2.6% 68.3% 29.1%
x264 [info]: mb P I16..4: 0.9% 11.8% 3.7% P16..4: 32.8% 25.8% 16.3% 0.0% 0.0% skip: 8.6%
x264 [info]: mb B I16..4: 0.2% 1.6% 0.8% B16..8: 33.5% 13.0% 4.9% direct: 7.1% skip:39.0% L0:38.3% L1:38.9% BI:22.8%
x264 [info]: 8x8 transform intra:69.1% inter:58.2%
x264 [info]: direct mvs spatial:96.9% temporal:3.1%
x264 [info]: coded y,uvDC,uvAC intra: 83.2% 88.3% 69.2% inter: 28.7% 23.6% 12.3%
x264 [info]: i16 v,h,dc,p: 47% 12% 8% 33%
x264 [info]: i8 v,h,dc,ddl,ddr,vr,hd,vl,hu: 13% 10% 7% 9% 13% 12% 13% 11% 13%
x264 [info]: i4 v,h,dc,ddl,ddr,vr,hd,vl,hu: 30% 6% 5% 7% 12% 10% 11% 8% 10%
x264 [info]: i8c dc,h,v,p: 41% 23% 18% 18%
x264 [info]: Weighted P-Frames: Y:10.1% UV:5.5%
x264 [info]: ref P L0: 51.9% 15.4% 12.1% 5.1% 3.8% 3.0% 2.6% 1.6% 1.4% 1.3% 1.4% 0.4% 0.0%
x264 [info]: ref B L0: 79.4% 8.8% 4.3% 2.1% 1.6% 1.3% 1.1% 0.7% 0.5% 0.2%
x264 [info]: ref B L1: 95.7% 4.3%
x264 [info]: kb/s:2123.76

Скриншоты

с названием

[Profile]  [PM] 
Display posts:    
Reply to topic

Current time is: 26-Sep 04:48

All times are UTC + 2



You cannot post new topics in this forum
You cannot reply to topics in this forum
You cannot edit your posts in this forum
You cannot delete your posts in this forum
You cannot vote in polls in this forum
You cannot attach files in this forum
You cannot download files in this forum